<?xml version="1.0" standalone="no"?>
<!DOCTYPE svg PUBLIC "-//W3C//DTD SVG 1.1//EN" "http://www.w3.org/Graphics/SVG/1.1/DTD/svg11.dtd" >
<svg xmlns="http://www.w3.org/2000/svg">
<metadata>Generated by IcoMoon</metadata>
<defs>
<font id="fa-thin" horiz-adv-x="1024">
<font-face units-per-em="1024" ascent="960" descent="-64" />
<missing-glyph horiz-adv-x="1024" />
<glyph unicode="&#x20;" horiz-adv-x="512" d="" />
<glyph unicode="&#xe900;" glyph-name="z" horiz-adv-x="768" d="M752 0h-736c-6.25 0-11.938 3.624-14.5 9.312-2.624 5.624-1.75 12.312 2.312 17.062l713.588 837.626h-701.4c-8.812 0-16 7.18-16 16s7.188 16 16 16h736c6.25 0 11.938-3.624 14.5-9.312 2.624-5.624 1.75-12.312-2.312-17.062l-713.568-837.626h701.38c8.812 0 16-7.188 16-16s-7.2-16-16-16z" />
<glyph unicode="&#xe901;" glyph-name="yin-yang" d="M512 960c-282.8 0-512-229.2-512-512s229.2-512 512-512 512 229.2 512 512-229.2 512-512 512zM32 448c0 264.6 215.4 480 480 480 127.94 0 232-104.060 232-232s-105.8-232-232-232c-145.56 0-264-118.44-264-264 0-80.56 37.040-151.9 94.12-200.4-180.96 68.8-310.12 243.6-310.12 448.4zM512-32c-127.94 0-232 104.060-232 232s104 232 232 232c145.56 0 264 118.44 264 264 0 80.56-37.040 151.9-94.12 200.4 180.92-68.84 310.12-243.6 310.12-448.4 0-264.6-215.4-480-480-480zM512 624c44.18 0 80 35.82 80 80s-35.8 80-80 80-80-35.8-80-80 35.8-80 80-80zM512 752c26.46 0 48-21.54 48-48s-21.6-48-48-48c-26.4 0-48 21.6-48 48s21.6 48 48 48zM512 272c-44.18 0-80-35.82-80-80s35.82-80 80-80 80 35.82 80 80-35.8 80-80 80zM512 144c-26.46 0-48 21.54-48 48s21.54 48 48 48c26.46 0 48-21.54 48-48s-21.6-48-48-48z" />
<glyph unicode="&#xe902;" glyph-name="yen-sign" horiz-adv-x="640" d="M320 491.2l291 398.24c5.2 7.14 15.4 8.7 22.4 3.48 7.2-5.22 8.8-15.22 3.6-22.36l-285.4-390.56h208.4c8.8 0 16-7.2 16-16s-7.2-16-16-16h-224v-160h224c8.8 0 16-7.2 16-16s-7.2-16-16-16h-224v-240c0-8.8-7.2-16-16-16s-16 7.2-16 16v240h-225.8c-7.040 0-16 7.2-16 16s8.96 16 16 16h225.8v160h-225.8c-7.040 0-16 7.2-16 16s8.96 16 16 16h210.2l-285.318 390.56c-5.212 7.14-3.655 17.14 3.478 22.36 7.136 5.22 17.14 3.66 22.36-3.48l291.080-398.24z" />
<glyph unicode="&#xe903;" glyph-name="y" horiz-adv-x="768" d="M764.8 870.48l-364.8-491.8v-362.6c0-8.812-7.188-16.022-16-16.022s-15.998 7.21-15.998 16.022v362.52l-364.8 491.8c-5.316 7.2-3.816 17.2 3.246 22.5 7.124 5.188 17.124 3.688 22.44-3.312l355.112-478.788 355.2 478.8c5.374 7 15.312 8.5 22.44 3.312 6.96-5.312 8.56-15.312 3.16-22.432z" />
<glyph unicode="&#xe904;" glyph-name="xmarks-lines" horiz-adv-x="1280" d="M1264 896c8.8 0 16-7.16 16-16s-7.2-16-16-16h-1248c-8.836 0-16 7.16-16 16s7.164 16 16 16h1248zM1264 32c8.8 0 16-7.2 16-16s-7.2-16-16-16h-1248c-8.836 0-16 7.2-16 16s7.164 16 16 16h1248zM214.6 448l164.8-164.6c6.2-6.4 6.2-16.4 0-22.8-6.4-6.2-16.4-6.2-22.8 0l-164.6 164.8-164.68-164.8c-6.26-6.2-16.384-6.2-22.634 0-6.248 6.4-6.248 16.4 0 22.8l164.694 164.6-164.694 164.6c-6.248 6.4-6.248 16.4 0 22.8 6.25 6.2 16.374 6.2 22.634 0l164.68-164.8 164.6 164.8c6.4 6.2 16.4 6.2 22.8 0 6.2-6.4 6.2-16.4 0-22.8l-164.8-164.6zM640 470.6l164.6 164.8c6.4 6.2 16.4 6.2 22.8 0 6.2-6.4 6.2-16.4 0-22.8l-164.8-164.6 164.8-164.6c6.2-6.4 6.2-16.4 0-22.8-6.4-6.2-16.4-6.2-22.8 0l-164.6 164.8-164.6-164.8c-6.4-6.2-16.4-6.2-22.8 0-6.2 6.4-6.2 16.4 0 22.8l164.8 164.6-164.8 164.6c-6.2 6.4-6.2 16.4 0 22.8 6.4 6.2 16.4 6.2 22.8 0l164.6-164.8zM900.6 635.4c6.4 6.2 16.4 6.2 22.8 0l164.6-164.8 164.6 164.8c6.4 6.2 16.4 6.2 22.8 0 6.2-6.4 6.2-16.4 0-22.8l-164.8-162.8 164.8-166.4c6.2-6.4 6.2-16.4 0-22.8-6.4-6.2-16.4-6.2-22.8 0l-164.6 164.8-164.6-164.8c-6.4-6.2-16.4-6.2-22.8 0-6.2 6.4-6.2 16.4 0 22.8l164.8 166.4-164.8 162.8c-6.2 6.4-6.2 16.4 0 22.8v0zM0 112c0 8.8 7.164 16 16 16h1248c8.8 0 16-7.2 16-16s-7.2-16-16-16h-1248c-8.836 0-16 7.2-16 16zM1264 800c8.8 0 16-7.16 16-16s-7.2-16-16-16h-1248c-8.836 0-16 7.16-16 16s7.164 16 16 16h1248z" />
<glyph unicode="&#xe905;" glyph-name="xmark" horiz-adv-x="640" d="M635.4 155.4c6.25-6.25 6.25-16.376 0-22.62-6.254-6.254-16.372-6.254-22.62 0l-292.78 292.62-292.6-292.6c-6.254-6.254-16.372-6.254-22.62 0-6.25 6.25-6.25 16.376 0 22.62l292.62 292.58-292.712 292.6c-6.25 6.25-6.25 16.376 0 22.62s16.376 6.25 22.62 0l292.692-292.62 292.6 292.6c6.25 6.25 16.376 6.25 22.62 0s6.25-16.376 0-22.62l-292.62-292.58 292.8-292.6z" />
<glyph unicode="&#xe906;" glyph-name="xmark-to-slot" horiz-adv-x="1152" d="M208 224c8.812 0 16 7.188 16 16v576c0 26.44 21.56 48 48 48h608c26.44 0 48-21.56 48-48v-576c0-8.812 7.188-16 16-16s16 7.2 16 16v576c0 44.12-35.8 80-80 80h-608c-44.2 0-80-35.88-80-80v-576c0-8.8 7.18-16 16-16zM112 128c0-8.812 7.188-16 16-16h896c8.812 0 16 7.188 16 16s-7.188 16-16 16h-896c-8.82 0-16-7.2-16-16zM1072 256h-32c-8.8 0-16-7.2-16-16s7.188-16 16-16h32c26.44 0 48-21.56 48-48v-96c0-26.44-21.56-48-48-48h-992c-26.44 0-48 21.56-48 48v96c0 26.44 21.56 48 48 48h32c8.82 0 16 7.2 16 16s-7.18 16-16 16h-32c-44.12 0-80-35.8-80-80v-96c0-44.2 35.88-80 80-80h992c44.12 0 80 35.88 80 80v96c0 44.2-35.8 80-80 80zM420.6 388.6c6.254-6.25 16.372-6.25 22.62 0l132.78 132.8 132.68-132.68c6.254-6.25 16.372-6.25 22.62 0 6.25 6.25 6.25 16.376 0 22.62l-132.7 132.66 132.68 132.68c6.25 6.25 6.25 16.376 0 22.62s-16.376 6.25-22.62 0l-132.66-132.7-132.6 132.8c-6.25 6.25-16.376 6.25-22.62 0s-6.25-16.376 0-22.62l132.62-132.78-132.8-132.6c-6.2-6.4-6.2-16.4 0-22.8z" />
<glyph unicode="&#xe907;" glyph-name="xmark-large" horiz-adv-x="896" d="M446.2 470.6l422.4 420.72c6.4 6.24 16.4 6.24 22.8 0 6.2-6.26 6.2-16.38 0-22.64l-420.8-418.88 420.8-422.4c6.2-6.4 6.2-16.4 0-22.8-6.4-6.2-16.4-6.2-22.8 0l-422.4 420.8-418.88-420.8c-6.26-6.2-16.386-6.2-22.634 0-6.248 6.4-6.248 16.4 0 22.8l420.714 422.4-420.714 418.88c-6.248 6.26-6.248 16.38 0 22.64 6.248 6.24 16.374 6.24 22.634 0l418.88-420.72z" />
<glyph unicode="&#xe908;" glyph-name="x" horiz-adv-x="768" d="M764.2 26.4c5.718-6.75 4.906-16.812-1.812-22.56-2.988-2.64-6.788-3.84-10.388-3.84-4.532 0-9 1.937-12.188 5.624l-355.812 417.776-355.8-417.6c-3.2-3.8-7.68-5.8-12.202-5.8-3.688 0-7.376 1.25-10.376 3.812-6.718 5.75-7.532 15.812-1.812 22.56l359.2 421.6-359.2 421.628c-5.718 6.75-4.906 16.812 1.812 22.56 6.72 5.76 16.758 4.94 22.558-1.8l355.82-417.76 355.8 417.6c5.812 6.75 15.906 7.562 22.56 1.812 6.718-5.75 7.532-15.812 1.812-22.56l-359.2-421.6 359.228-421.452z" />
<glyph unicode="&#xe909;" glyph-name="x-ray" d="M416 192c17.6 0 32 14.4 32 32s-14.4 32-32 32-32-14.4-32-32c0-17.6 14.4-32 32-32zM608 192c17.672 0 32 14.328 32 32 0 17.676-14.328 32-32 32s-32-14.4-32-32c0-17.6 14.4-32 32-32zM832 528c8.844 0 16 7.188 16 16s-7.2 16-16 16h-304v96h240c8.844 0 16 7.188 16 16s-7.2 16-16 16h-240v80c0 8.812-7.156 16-16 16s-16-7.18-16-16v-80h-240c-8.844 0-16-7.188-16-16s7.2-16 16-16h240v-96h-304c-8.844 0-16-7.188-16-16s7.16-16 16-16h304v-96h-240c-8.844 0-16-7.188-16-16s7.2-16 16-16h240v-64h-154.6c-30.040 0-56.4-15.812-70.56-42.32-14.156-26.44-12.656-57.12 4-82.060l42.66-64c14.9-22.22 39.7-35.62 66.5-35.62h256c26.82 0 51.68 13.312 66.56 35.62l42.66 64c16.656 24.94 18.156 55.62 4 82.060-14.22 26.52-40.62 42.32-70.62 42.32h-154.6v64h240c8.844 0 16 7.188 16 16s-7.2 16-16 16h-240v96h304zM682.6 304c18 0 33.84-9.5 42.34-25.38 8.468-15.876 7.594-34.32-2.406-49.24l-42.66-64c-8.874-13.38-23.874-21.38-39.874-21.38h-256c-16.094 0-31 8-39.94 21.38l-42.66 64c-10 14.938-10.876 33.38-2.406 49.24 8.606 15.78 24.406 25.38 42.406 25.38h341.2zM16 864h992c8.8 0 16 7.18 16 16s-7.2 16-16 16h-992c-8.844 0-16-7.18-16-16s7.156-16 16-16zM1008 32h-992c-8.844 0-16-7.2-16-16s7.156-16 16-16h992c8.844 0 16 7.188 16 16s-7.2 16-16 16zM64 800v-704c0-8.812 7.156-16 16-16s16 7.2 16 16v704c0 8.812-7.156 16-16 16s-16-7.18-16-16zM928 800v-704c0-8.812 7.156-16 16-16s16 7.2 16 16v704c0 8.812-7.156 16-16 16s-16-7.18-16-16z" />
<glyph unicode="&#xe90a;" glyph-name="wrench" d="M1015.2 714.4c-3.672 15.282-17.298 24.14-31.26 24.14-8.124 0-16.362-2.994-22.82-9.46l-153.1-153.12h-166.2v166.2l153.1 153.12c17.582 17.578 9.5 48.28-14.672 54.080-25.648 7.576-50.648 10.636-78.048 10.64-25.24 0-51.020-2.986-77.4-9.3-121-29.4-217-133.8-236.6-256.9-8.472-53.72-3.472-105.42 12.004-152.34l-356.2-356.2c-56.24-56.24-56.24-147.38 0-203.6 26.316-29.86 63.116-45.66 98.196-45.66s73.68 14.062 101.82 42.18l356.2 356.2c65.56-21.62 121.96-16.796 152.34-12.008 124.82 19.68 229.2 115.6 258.6 238.4 16.24 55.028 15.44 106.228 4.040 153.628zM983.6 569.8c-26.4-110.32-119.82-196.38-232.4-214.2-11.7-1.842-63.44-13.582-156.060 16.96l-371.8-371.8c-43.76-43.76-114.56-43.82-158.36 0-43.76 43.76-43.82 114.56 0 158.38l371.8 371.8c-30.74 93.2-19.416 140.46-16.958 156.060 17.766 112.68 103.82 206.2 214.2 232.4 33.24 7.954 83.68 13.998 136.6 0.141l-162.48-162.48v-213.2h213.2l162.84 162.96c10.618-44.621 10.418-90.621-0.582-137.021zM159.98 129.8c-17.672 0-32-14.324-32-32 0-17.672 14.33-32 32-32 17.672 0 32 14.328 32 32 0 15.8-14.34 32-32 32z" />
<glyph unicode="&#xe90b;" glyph-name="wrench-simple" horiz-adv-x="768" d="M768 615.2c0-142.020-77.4-265.6-192-332v-331.2c0-8.836-7.164-16-16-16s-16 7.2-16 16v331c0 11.704 6.542 22.2 16.656 28.1 108.144 63.1 175.344 179.5 175.344 304.1 0 132.26-73.28 252.2-191.24 312.8l-0.76-286.2c0-8.484-3.372-16.624-9.372-22.62l-128-128.020c-6.228-7.96-14.428-9.36-22.628-9.36s-16.4 1.4-22.6 7.6l-128 128.020c-6 5.98-9.4 14.18-9.4 24.38l-0.8 286.1c-117.92-60.7-191.2-180.5-191.2-312.7 0-124.48 67.16-240.8 175.34-303.8 10.060-6.2 16.66-16.6 16.66-28.4v-331c0-8.8-7.2-16-16-16s-16 7.2-16 16v331c-114.6 66.44-192 189.98-192 332 0 215.3 180.12 345 223.6 345 17 0 32.4-13.46 32.4-32.2v-287.8l128-128 128 128v287.8c0 18.74 15.4 32.2 32.4 32.2 43.4 0 223.6-129.7 223.6-344.8z" />
<glyph unicode="&#xe90c;" glyph-name="wreath" horiz-adv-x="896" d="M580.6 189.8l-132.6-45-132.38 45c-14 4.562-29.5 2-41.4-6.624-11.62-8.576-18.22-21.376-18.22-35.376v-167.82c0-13.812 6.562-26.56 17.968-34.94 11.812-8.688 27.28-11.188 41.88-6.812l132.152 44.772 132.38-44.82c4.62-1.58 9.42-2.18 14.22-2.18 9.688 0 19.282 3 27.28 8.812 11.52 8.388 18.12 22.988 18.12 36.988v167.82c0 13.876-6.562 26.62-18 35-11.8 6.98-27.2 9.58-41.4 5.18zM608-18.2c0-5.062-3.5-8.188-5.032-9.312-3.718-2.688-8.344-3.562-12.562-2.062l-142.406 46.374-142.060-48.060c-4.344-1.312-9.282-0.625-13.032 2.124-1.908 1.336-4.908 4.336-4.908 10.936v167.82c0 4.938 3.156 8 5.032 9.376 3.718 2.688 8.376 3.562 12.532 2.124l142.436-50.12 142.22 48.26c4.376 1.375 9.25 0.5 12.844-2.124 1.936-1.336 4.936-4.336 4.936-9.336v-166zM894.2 512c0 31.56-13.686 61.18-37.22 81.8 13.906 27.82 15.096 60.4 2.908 89.78-12.376 29.56-36.78 51.8-67 61.54 2.406 31.56-8.398 62.020-30.060 83.66-21.68 21.76-51.98 32.22-83.54 29.92-9.782 30.44-32.060 54.94-61.62 67.080-28.88 12.062-61.4 10.806-89.66-3.070-20.6 23.62-50.24 37.32-81.84 37.32-31.56 0-61.16-13.688-81.76-37.26-27.94 13.938-60.52 15.256-89.76 3.070-27.848-12.52-50.048-37.1-59.648-67.16-31.56 2.88-62-8.2-83.56-29.84-21.9-21.62-32.56-52.16-29.98-83.64-30.4-9.8-54.98-32-67.080-61.6-12.16-29-10.76-61.4 3.16-89.6-23.728-20.6-37.539-50.2-37.539-80.2 0-31.5 13.686-61.060 37.22-81.76-13.906-27.82-15.182-60.36-2.964-89.72 12.282-29.2 36.8-51.16 67.16-60.84-2.812-32.2 7.78-62.3 28.2-84.3 18-18.25 42.1-28.9 69.62-30.7 0.375-0.063 0.719-0.063 1.094-0.063 8.344 0 15.376 6.5 15.938 14.938 0.594 8.812-6.094 16.438-14.906 17-13.656 0.937-33.24 5.376-49.1 21.44-17.938 17.75-24.88 43.38-19.032 70.32 0.937 4.25 0.094 8.688-2.344 12.312s-6.25 6.062-10.532 6.812c-26.9 4.688-48.18 21.24-58.34 45.38-10 24.060-7.188 51.12 7.532 72.5 4.273 1.681 5.173 6.081 4.353 10.281-0.84 4.2-3.3 8-6.9 10.4-21.9 14.4-35 38.4-35 66 0 25.88 13.156 49.88 35.16 64.2 3.594 2.376 6.094 6.062 6.968 10.25 0.832 2.35-0.028 6.75-2.408 10.35-14.75 21.88-17.594 49-7.624 72.76 9.906 24.18 31.6 41.38 58.060 46 4.284 0.84 8.104 3.24 10.524 6.84s3.28 8.2 2.36 12.4c-5.82 26.46 1.12 51.76 19.080 69.52 17.76 17.74 43.26 24.44 69.68 19.060 4.4-0.94 8.8-0.060 12.4 2.38 3.624 2.5 6.062 6.312 6.782 10.624 4.418 26.056 21.418 47.816 45.818 58.056 23.82 10 51 7.124 72.56-7.624 3.532-2.5 7.938-3.188 12.124-2.5 4.218 0.812 7.938 3.312 10.282 6.876 14.434 21.948 38.434 35.008 64.234 35.008s49.88-13.062 64.26-35c2.344-3.562 6.032-6 10.218-6.876 4.218-0.812 8.562 0 12.094 2.438 21.82 14.624 49.040 17.624 72.76 7.624 24.16-9.876 41.34-31.62 46-58.12 0.75-4.312 3.188-8.062 6.812-10.5 3.594-2.438 8.032-3.25 12.282-2.376 26.32 5.624 52.22-1.563 69.72-19.062 17.718-17.688 24.66-43.12 19.032-69.7-0.906-4.25-0.031-8.688 2.406-12.25 2.416-3.578 6.216-5.978 10.416-6.778 26.28-4.624 48-21.82 58.12-46.060 10-24.060 7.188-51.2-7.532-72.56-2.468-3.5-3.376-7.878-2.562-12.128 0.844-4.25 3.344-7.938 6.938-10.312 22.036-14.34 35.036-38.34 35.036-62.54 0-25.82-12.906-49.7-34.56-64-3.562-2.376-6.062-6.124-6.876-10.312-0.812-4.25 0.125-8.624 2.562-12.124 14.812-21.5 17.718-48.56 7.782-72.44-10.062-24.12-31.32-40.7-58.34-45.44-4.312-0.75-8.094-3.188-10.532-6.812s-3.282-8.062-2.344-12.312c5.812-26.82-1.125-52.44-19.094-70.38-16.282-16.316-35.72-20.62-49.12-21.38-8.844-0.563-15.562-8.124-15.062-16.938 0.531-8.812 7.782-15.124 16.876-15.062 27.22 1.625 51.42 12.218 69.96 30.78 21.9 21.88 32.6 52.54 30.020 84.28 30.5 9.75 55.040 31.7 67.24 60.96 12.156 29.24 10.796 61.8-3.234 89.74 23.322 18.64 34.922 48.24 34.922 79.64zM632.4 575.8c-2.062 6.624-2.718 14-3.5 21.32-1.469 14.062-3.156 29.94-12.312 43.18-9.5 13.562-23.96 20.38-36.76 26.44-6.282 2.938-12.594 5.812-17.688 9.562-4.75 3.624-9.438 9.062-14.438 14.812-9.302 10.686-19.702 21.086-35.102 26.286-14.968 4.942-30.24 1.688-43.72-1.188-15-3.25-26.62-3.25-41.62 0-13.66 2.988-28.86 6.188-43.86 1.188-15.4-5.2-25.8-15.6-35-28-5-5.75-9.688-11.188-14.468-14.812-4.932-3.788-11.332-6.788-18.332-9.988-12.6-6-26.8-12.6-36.2-26.2-9.094-13.188-10.782-29.060-12.25-43.12-0.75-5.48-1.55-14.68-3.55-21.080-2-6.2-5.4-12.4-8.8-18.6-7-12.4-14.8-26.6-14.8-43.6 0-16.938 7.844-31.18 14.782-43.68 3.406-6.192 6.906-12.254 8.844-18.378 2.062-6.624 2.718-14 3.5-21.32 1.469-14.062 3.156-29.94 12.312-43.2 9.5-13.562 23.96-20.38 36.76-26.44 6.202-1.182 12.602-5.782 17.602-9.582 4.8-3.6 9.6-9 14.6-14.8 9.2-10.8 19.6-22.8 35-28 5.624-1.875 11.282-2.562 16.876-2.562 9.312 0 18.438 1.937 26.84 3.75 15 3.25 26.62 3.25 41.62 0 13.468-2.876 28.66-6.25 43.82-1.125 15.376 5.25 25.84 17.312 35.060 28 5 5.754 9.688 11.192 14.468 14.816 4.844 3.688 11.312 6.75 18.156 9.938 12.594 5.938 26.84 12.624 36.32 26.12 9.094 13.188 10.782 29.060 12.25 43.12 0.781 7.25 1.437 14.624 3.468 21.24 2 6.25 5.468 12.25 8.876 18.442 7.046 12.461 14.846 26.661 14.846 43.661 0 16.942-7.844 31.2-14.782 43.7-3.418 6.1-6.818 12.3-8.818 20.1zM613.2 483.8c-4.438-8.062-8.766-16.124-11.36-24.26 0-0.063 0 0 0 0-2.812-9.124-3.828-18.5-4.766-27.56-1.188-11.188-2.312-21.76-6.688-28.12-4.532-6.504-13.844-10.816-23.68-15.504-8.032-3.75-16.344-7.688-23.88-13.376-7.438-5.624-13.468-12.624-19.344-19.376-7.188-8.376-14-16.25-21.060-18.624-6.688-2.254-16.532-0.063-26.84 2.124-17.624 3.75-37.5 3.75-55.12 0-10.262-2.304-20.062-4.304-26.862-2.304-7 2.4-13.8 10.4-21 18.8-6 6.6-12 13.6-19.6 19.4-6.844 5.062-15 9-23.18 12.876-10.020 4.724-19.62 9.324-24.22 15.924-4.438 6.438-5.562 17-6.75 28.18-0.85 9.020-1.85 18.22-4.65 27.62-2.6 8-7 16-11.4 24.2-5.6 10-10.8 19.6-10.8 30s5.2 16.4 10.8 26.4c4.438 8.062 8.75 16.062 11.376 24.32 2.824 9.080 3.824 18.48 4.824 29.28 1.2 9.4 2.2 19.6 6.6 26s13.8 11.2 23.8 15.8c8.032 3.75 16.344 7.688 23.88 13.376 7.32 5.624 13.32 12.624 19.32 19.424 7.188 8.376 14 16.25 21.060 18.624 2 0.688 4.282 0.937 6.782 0.937 5.844 0 12.812-1.5 20.060-3.062 17.624-3.75 37.5-3.75 55.12 0 10.344 2.188 20.1 4.25 26.76 2.188 7.156-2.438 13.968-10.312 21.16-18.688 5.876-6.75 11.906-13.754 19.5-19.504 6.844-5.062 15-9 23.18-12.876 10.062-4.75 19.562-9.25 24.16-15.812 4.438-6.438 5.562-17 6.75-28.18 0.937-9.066 1.937-18.378 4.782-27.62 2.594-8.124 6.906-16.124 11.344-24.18 5.562-10.062 10.81-19.526 10.81-28.22s-5.268-18.207-10.868-28.207z" />
<glyph unicode="&#xe90d;" glyph-name="worm" d="M768 800c0 17.68 14.4 32 32 32s32-14.32 32-32c0-17.68-14.4-32-32-32s-32 14.32-32 32zM844.8 960c99 0 179.2-80.24 179.2-179.2v-540.8c0-167.8-136.2-304-304-304s-304 136.2-304 304v96c0 61.8-50.2 112-112 112s-112-50.2-112-112v-304c0-53-42.98-96-96-96s-96 43-96 96v304c0 167.8 136.1 304 304 304 167.8 0 304-136.2 304-304v-96c0-61.8 50.2-112 112-112s112 50.2 112 112v363.4l-108.8 15.6c-84.4 12-147.2 84.4-147.2 169.62 0 94.66 76.8 171.38 171.4 171.38h97.4zM864 240c0-79.6-64.4-144-144-144s-144 64.4-144 144v96c0 150.2-121.8 272-272 272-150.22 0-272-121.8-272-272v-304c0-35.4 28.66-64 64-64s64 28.6 64 64v304c0 79.6 64.4 144 144 144s144-64.4 144-144v-96c0-150.2 121.8-272 272-272s272 121.8 272 272v540.8c0 81.3-66 147.2-147.2 147.2h-97.4c-77 0-139.4-62.4-139.4-139.38 0-69.42 51-128.22 119.6-138.020l136.4-19.4v-391.2z" />
<glyph unicode="&#xe90e;" glyph-name="won-sign" d="M200.8 417.8h174.4l121.4 466.22c1.8 7.060 8.2 11.98 15.4 11.98s13.6-4.92 15.4-11.98l121.4-466.22h174.4l121.4 466.22c2.2 8.54 10.8 13.68 19.4 11.46 8.6-2.2 13.8-10.94 11.4-19.5l-119.2-458.18h151.8c8.8 0 16-9 16-16 0-10.6-7.2-16-16-16h-161.8l-94.8-373.8c-1.8-7-8.2-12-15.4-12s-13.6 5-15.4 12l-96.6 373.8h-225.8l-94.8-373.8c-1.8-7-8.2-12-15.4-12s-13.6 5-15.4 12l-96.54 373.8h-160.060c-8.836 0-16 5.4-16 16 0 7 7.164 16 16 16h151.76l-119.24 458.18c-2.22 8.56 2.92 17.3 11.46 19.5 8.56 2.22 17.3-2.92 19.5-11.46l121.32-466.22zM209.2 385.8l78.8-306 78.8 306h-157.6zM408.2 417.8h207.6l-103.8 398.44-103.8-398.44zM657.2 385.8l78.8-306 78.8 306h-157.6z" />
<glyph unicode="&#xe90f;" glyph-name="wine-glass" horiz-adv-x="640" d="M606.8 574.8l-29.32 327c-2.88 32.96-30.080 58.2-62.88 58.2h-389.28c-32.62 0-59.86-25.24-62.82-58.2l-29.3-327c-14.856-165.82 109.72-308.2 271.4-317 0-0.8-0.6-1.2-0.6-1.8v-288h-177.8c-8.812 0-16-7.188-16-16s7.188-16 16-16h384c8.812 0 16 7.188 16 16s-7.188 16-16 16h-174.2v288c0 0.648-0.617 1.031-0.691 1.66 161.691 8.74 286.291 151.34 271.491 317.14zM94.38 898.94c1.48 16.56 14.78 29.060 30.94 29.060h389.4c16.152 0 29.46-12.492 30.94-29.060l17.34-194.94h-486.080l17.46 194.94zM320 288c-71.92 0-138.5 29.48-187.48 83.040-49.44 54.16-74.040 127.36-67.44 200.76l8.96 100.2h490.2l8.972-100.18c6.586-73.52-18-146.7-67.46-200.8-47.152-53.62-115.552-83.020-185.752-83.020z" />
<glyph unicode="&#xe910;" glyph-name="wine-glass-empty" horiz-adv-x="640" d="M606.8 574.8l-29.32 327c-2.88 32.96-30.080 58.2-62.88 58.2h-389.28c-32.62 0-59.86-25.24-62.82-58.2l-29.3-327c-14.856-165.82 109.72-308.2 271.4-317 0-0.8-2.4-1.2-2.4-1.8v-288h-176c-8.812 0-16-7.188-16-16s8.98-16 16-16h384c8.812 0 16 7.188 16 16s-7.188 16-16 16h-176v288c0 0.648-0.617 1.031-0.691 1.66 163.491 8.74 288.091 151.34 273.291 317.14zM320 288c-71.92 0-138.5 29.48-187.48 83.040-49.46 54.080-74.040 127.26-67.46 200.8l29.3 327.2c1.5 16.46 14.8 28.96 30.96 28.96h389.4c16.152 0 29.46-12.492 30.94-29.060l29.3-327.2c6.586-73.52-18-146.7-67.46-200.8-48.9-53.54-117.3-82.94-187.5-82.94z" />
<glyph unicode="&#xe911;" glyph-name="wine-glass-crack" horiz-adv-x="640" d="M606.8 574.8l-29.32 327c-2.88 32.96-30.080 58.2-62.88 58.2h-389.28c-32.62 0-59.86-25.24-62.82-58.2l-29.3-327c-14.856-165.82 109.72-308.2 271.4-317 0-0.8-0.6-1.2-0.6-1.8v-288h-177.8c-8.812 0-16-7.188-16-16s7.188-16 16-16h384c8.812 0 16 7.188 16 16s-7.188 16-16 16h-174.2v288c0 0.648-0.617 1.031-0.691 1.66 161.691 8.74 286.291 151.34 271.491 317.14zM320 288c-71.92 0-138.5 29.48-187.48 83.040-49.44 54.16-74.040 127.36-67.44 200.76l29.3 327.2c1.48 16.5 14.78 29 30.94 29h183.48l55.3-152.060-115.3-57.54c-4.6-2.4-7.8-6.8-8.6-11.8-0.8-5.2 0.8-10.2 4.4-14l128-128c3.2-3 5.6-4.6 11.4-4.6s8.188 1.563 11.312 4.688c6.25 6.25 6.25 16.376 0 22.62l-112.312 112.292 108.16 54.060c7.282 3.624 10.656 12.156 7.876 19.782l-56.236 154.558h171.84c16.152 0 29.46-12.492 30.94-29.060l29.3-327.2c6.586-73.52-18-146.7-67.46-200.8-48.82-53.54-117.22-82.94-187.42-82.94z" />
<glyph unicode="&#xe912;" glyph-name="wine-bottle" d="M1019.4 795.32l-160 160c-6.25 6.25-16.376 6.25-22.62 0s-6.25-16.376 0-22.62l12.106-12.106-213.8-213.8c-31.98 13.55-66.12 20.34-100.22 20.34-65.34 0-130.6-24.9-180.56-74.84l-316.8-316.8c-50-50-50-131.020 0-181.020l181.020-181.040c25.074-25.034 57.674-37.434 90.474-37.434s65.5 12.5 90.5 37.5l316.8 316.8c76 76 94 187.52 54.5 280.8l213.8 213.8 12.128-12.128c3.072-3.212 5.472-4.772 11.272-4.772s8.188 1.563 11.312 4.688c6.288 6.252 6.288 16.372 0.088 22.632zM342.4 595.2l316.8-316.8-221.4-221.4-316.84 316.8 221.44 221.4zM377-3.8c-18.2-18.2-42.4-28.2-68-28.2s-49.74 9.988-67.88 28.12l-181.020 181.040c-19.9 18.040-28.1 42.24-28.1 67.84 0 25.64 9.992 49.74 28.14 67.88l38.2 38.2 316.8-316.8-38.14-38.080zM741.4 558.6c35.78-84.5 17.078-180.92-47.66-245.6l-11.93-11.93-316.81 316.73 11.934 11.938c42.22 42.22 98.3 65.46 157.92 65.46 30.34 0 59.86-5.988 87.74-17.8l19.856-8.414 100.98 100.98 90.5-90.5-100.98-100.98 8.45-19.884zM856.6 703.8l-90.5 90.5 105.38 105.38 90.5-90.5-105.38-105.38z" />
<glyph unicode="&#xe913;" glyph-name="windsock" d="M16 960c-8.812 0-16-7.188-16-16v-992c0-8.8 7.188-16 16-16s16 7.188 16 16v992c0 8.812-7.18 16-16 16zM962.4 731.2l-766.72 180.36c-4.876 1.25-9.75 0.063-13.624-3-3.796-3.060-6.056-7.68-6.056-12.56v-112h-80c-8.82 0-16-7.18-16-16s7.18-16 16-16h80v-416h-80c-8.812 0-16-7.188-16-16s7.188-16 16-16h80v-112c0-4.876 2.25-9.5 6.062-12.562 2.878-2.238 6.378-3.438 9.938-3.438 1.25 0 2.438 0.125 3.688 0.437l766.6 180.38c36.312 8.583 61.712 40.583 61.712 77.783v218.8c0 37.2-25.4 69.2-61.6 77.8zM432 264.8l-224-52.7v663.72l224-52.7v-558.32zM752 340.2l-288-67.76v543.14l288-67.76v-407.62zM992 434.6c0-22.38-15.188-41.62-37-46.76l-171-40.040v392.4l171-40.24c21.8-4.96 37-24.36 37-46.56v-218.8z" />
<glyph unicode="&#xe914;" glyph-name="window-minimize" d="M0 16c0 8.8 7.164 16 16 16h992c8.8 0 16-7.2 16-16s-7.2-16-16-16h-992c-8.836 0-16 7.2-16 16z" />
<glyph unicode="&#xe915;" glyph-name="window" d="M160 704c0 17.6 14.32 32 32 32 17.6 0 32-14.4 32-32s-14.4-32-32-32c-17.68 0-32 14.4-32 32zM416 704c0-17.6-14.4-32-32-32s-32 14.4-32 32c0 17.6 14.4 32 32 32s32-14.4 32-32zM544 704c0 17.6 14.4 32 32 32s32-14.4 32-32c0-17.6-14.4-32-32-32s-32 14.4-32 32zM0 768c0 70.7 57.3 128 128 128h768c70.6 0 128-57.3 128-128v-640c0-70.6-57.4-128-128-128h-768c-70.7 0-128 57.4-128 128v640zM32 768v-640c0-53 42.98-96 96-96h768c53 0 96 43 96 96v640c0 53.020-43 96-96 96h-768c-53.020 0-96-42.98-96-96z" />
<glyph unicode="&#xe916;" glyph-name="window-restore" d="M864 928h-448c-70.6 0-128-57.3-128-128v-32h-32v32c0 88.36 71.6 160 160 160h448c88.4 0 160-71.64 160-160v-448c0-88.4-71.6-160-160-160h-32v32h32c70.6 0 128 57.4 128 128v448c0 70.7-57.4 128-128 128zM640 704c70.6 0 128-57.4 128-128v-512c0-70.6-57.4-128-128-128h-512c-70.7 0-128 57.4-128 128v512c0 70.6 57.3 128 128 128h512zM640 672h-512c-53.020 0-96-43-96-96v-128h704v128c0 53-43 96-96 96zM128-32h512c53 0 96 43 96 96v352h-704v-352c0-53 42.98-96 96-96z" />
<glyph unicode="&#xe917;" glyph-name="window-maximize" d="M0 768c0 70.7 57.3 128 128 128h768c70.6 0 128-57.3 128-128v-640c0-70.6-57.4-128-128-128h-768c-70.7 0-128 57.4-128 128v640zM38.4 768v-160h947.2v160c0 49.48-40.2 89.6-89.6 89.6h-768c-49.48 0-89.6-40.12-89.6-89.6v0zM38.4 576v-448c0-49.4 40.12-89.6 89.6-89.6h768c49.4 0 89.6 40.2 89.6 89.6v448h-947.2z" />
<glyph unicode="&#xe918;" glyph-name="window-frame" d="M1008-32h-48v912c0 44.12-35.8 80-80 80h-736c-44.12 0-80-35.88-80-80v-912h-48c-8.812 0-16-7.2-16-16s7.188-16 16-16h992c8.812 0 16 7.188 16 16s-7.2 16-16 16zM880 928c26.44 0 48-21.56 48-48v-416h-400v464h352zM96 880c0 26.44 21.56 48 48 48h352v-464h-400v416zM96-32v464h400v-464h-400zM528-32v464h400v-464h-400z" />
<glyph unicode="&#xe919;" glyph-name="window-frame-open" d="M1008-32h-48v336c0 8.812-7.188 16-16 16s-16-7.188-16-16v-336h-832v336c0 8.8-7.18 16-16 16s-16-7.2-16-16v-336h-48c-8.812 0-16-7.2-16-16s7.188-16 16-16h992c8.812 0 16 7.188 16 16s-7.2 16-16 16zM80 384h864c8.8 0 16 7.2 16 16v480c0 44.12-35.8 80-80 80h-736c-44.12 0-80-35.88-80-80v-480c0-8.8 7.18-16 16-16zM528 928h352c26.44 0 48-21.56 48-48v-464h-400v512zM96 880c0 26.44 21.56 48 48 48h352v-512h-400v464z" />
<glyph unicode="&#xe91a;" glyph-name="window-flip" d="M832 672c-17.6 0-32 14.4-32 32s14.4 32 32 32c17.6 0 32-14.4 32-32s-14.4-32-32-32zM640 736c17.6 0 32-14.4 32-32s-14.4-32-32-32c-17.6 0-32 14.4-32 32s14.4 32 32 32zM448 672c-17.6 0-32 14.4-32 32s14.4 32 32 32c17.6 0 32-14.4 32-32s-14.4-32-32-32zM1024 128c0-70.6-57.4-128-128-128h-768c-70.7 0-128 57.4-128 128v640c0 70.7 57.3 128 128 128h768c70.6 0 128-57.3 128-128v-640zM896 864h-768c-53.020 0-96-42.98-96-96v-640c0-53 42.98-96 96-96h768c53 0 96 43 96 96v640c0 53.020-43 96-96 96z" />
<glyph unicode="&#xe91b;" glyph-name="wind" d="M376 288h-360c-8.812 0-16-7.2-16-16s7.188-16 16-16h360c57.4 0 104-46.6 104-104v-16c0-57.38-46.62-104-104-104h-104c-8.8 0-16-7.2-16-16s7.2-16 16-16h104c75 0 136 61 136 136v16c0 75-61 136-136 136zM16 608h744c75 0 136 61 136 136v16c0 75-61 136-136 136h-104c-8.8 0-16-7.18-16-16s7.188-16 16-16h104c57.38 0 104-46.62 104-104v-16c0-57.4-46.6-104-104-104h-744c-8.812 0-16-7.2-16-16s7.188-16 16-16zM888 464h-872c-8.812 0-16-7.2-16-16s7.188-16 16-16h872c57.38 0 104-46.62 104-104s-46.6-104-104-104h-104c-8.812 0-16-7.188-16-16s7.2-16 16-16h104c75 0 136 61 136 136s-61 136-136 136z" />
<glyph unicode="&#xe91c;" glyph-name="wind-warning" horiz-adv-x="1280" d="M944 528h184c83.8 0 152 68.2 152 152s-68.2 152-152 152h-88c-8.8 0-16-7.18-16-16s7.188-16 16-16h88c66.18 0 120-53.82 120-120s-53.8-120-120-120h-184c-8.812 0-16-7.188-16-16s7.2-16 16-16zM711 202.2c-73.2-87.8-180.8-138.2-295-138.2-211.8 0-384 172.26-384 384s172.26 384 384 384c189.56 0 349-135.62 379.2-322.6 1.437-8.75 9.188-14.75 18.376-13.25 8.688 1.437 14.624 9.624 13.25 18.376-32.626 202.474-205.426 349.474-410.826 349.474-229.38 0-416-186.6-416-416s186.62-416 416-416c123.82 0 240.4 54.56 319.6 149.76 5.624 6.812 4.75 16.876-2.062 22.56-6.738 5.68-16.738 4.68-22.538-2.12zM432 368v320c0 8.812-7.22 16-16.032 16s-15.968-7.2-15.968-16v-320c0-8.812 7.188-16 16-16s16 7.2 16 16zM1120 384h-464c-8.8 0-16-7.2-16-16s7.188-16 16-16h464c70.56 0 128-57.44 128-128s-57.44-128-128-128h-80c-8.812 0-16-7.188-16-16s7.2-16 16-16h80c88.26 0 160 71.76 160 160s-71.8 160-160 160zM384.2 224c0-17.644 14.224-32 31.86-32s32.14 14.356 32.14 32-14.356 32-32 32-32-14.4-32-32z" />
<glyph unicode="&#xe91d;" glyph-name="wind-turbine" d="M512 544c-17.6 0-33.8-14.4-33.8-32 0-17.672 14.328-32 32-32s30.2 14.328 30.2 32c1.8 17.6-10.8 32-28.4 32zM752-32h-133.48l-10.582 161.060c-0.5 8.75-6.75 16.624-17 14.876-8.812-0.563-15.5-8.188-14.876-17l10.538-158.936h-149l26.28 350.8c0.72 8.8-5.88 16.6-14.68 17.2-8.4 1.6-16.6-6-17.2-14.8l-26.4-353.2h-133.6c-8.8 0-16-7.2-16-16s7.156-14.2 15.97-14.2h480c8.812 0 15.994 7.192 15.994 16.006s-7.164 14.194-15.964 14.194zM796.2 129l-169.62 351.8c-9.624 22.26-10.124 47.82-1.312 70.080l140.732 345.54c9.376 23.76-2.25 50.76-26 60.32-19.75 7.812-42.24 1.25-54.56-16.004l-219.24-302.136c-16-20-35.4-33-59.6-36.8l-367.54-58.6c-22.748-3.6-39.554-23.4-39.054-47 0.562-23.4 18.37-43 41.314-45.4l364.4-39.7c23.88-2.562 46.24-14.878 61.56-34.080l248.2-295.6c18.536-23.42 46.72-19.020 60.56-10.504 21.36 11.884 29.36 36.884 20.16 58.084zM741.8 101.6l-251.6 295.8c-18.6 25.4-48.8 42-81 45.6l-364.44 39.6c-16.34 1.738-17.222 26.34-0.688 29l367.6 58.5c32.62 5.192 61.18 22.82 80.5 49.64l219.2 302.4c9.872 13.688 31.040 1.715 24.94-13.692l-140.76-345.6c-11.938-30.26-11.376-64.76 1.875-95.32l169.5-351.4c6.073-15.128-14.127-28.328-25.127-14.528z" />
<glyph unicode="&#xe91e;" glyph-name="wifi" horiz-adv-x="1280" d="M638.2 257.8c-70.68 0-128-57.3-128-128.020s57.32-128.020 128-128.020 128 57.3 128 128.020c0 69.020-55.6 128.020-128 128.020zM638.2 33.8c-52.94 0-96 43.080-96 96.040s43.080 94.2 96.020 94.2 95.98-43.040 95.98-94.2c0-54.64-41.2-96.040-96-96.040zM1275.4 633.2c-350.2 350.4-920.4 350.4-1270.6 0-6.25-6.254-6.25-16.382 0-22.64s16.376-6.254 22.62 0c337.8 336.2 887.6 336.2 1225.4 0 2.98-3.16 6.98-4.76 11.18-4.76s8.188 1.563 11.312 4.688c6.288 6.312 6.288 16.312 0.088 22.712zM640 577.8c-150.18 0-291.4-58.3-397.6-164.56-6.25-6.25-6.25-16.382 0-22.64 6.25-6.254 16.376-6.254 22.62 0 100.18 98.4 233.38 153.6 374.98 153.6s274.8-55.060 375-155.26c3.124-3.128 7.188-4.692 11.312-4.692s8.188 1.563 11.312 4.692c6.25 6.25 6.25 16.382 0 22.64-106.224 106.22-247.424 166.22-397.624 166.22z" />
<glyph unicode="&#xe91f;" glyph-name="wifi-weak" horiz-adv-x="1280" d="M638.2 256c-70.68 0-128-57.32-128-126.2 0-70.68 57.32-128 128-128s128 57.32 128 128c1.8 68.8-55.6 126.2-128 126.2zM640 33.8c-52.94 0-96 43.060-96 96s43.060 94.2 96 94.2 96-43.060 96-94.2c0-54.8-43-96-96-96z" />
<glyph unicode="&#xe920;" glyph-name="wifi-slash" horiz-adv-x="1280" d="M242.4 411.6c-6.25-6.25-6.25-16.382 0-22.64 6.25-6.25 16.376-6.25 22.62 0 33.58 33.6 71.12 61.64 111.18 84.74l-26.6 21.1c-38.4-23.2-74.6-49-107.2-83.2zM4.688 633.2c-6.25-6.25-6.25-16.376 0-22.64 6.25-6.258 16.376-6.258 22.62 0 26.78 26.78 55.3 50.68 84.54 73.22l-25.94 20.62c-28.048-22-55.388-45.4-81.22-71.2zM771.8 527.2c91.14-23.26 174.9-70.020 243.2-138.3 3.124-3.126 7.188-4.688 11.312-4.688s8.188 1.563 11.312 4.688c6.25 6.25 6.25 16.382 0 22.64-87.66 87.72-199.34 142.28-320 158.86l54.176-43.2zM1252.6 610.6c3.2-3.2 7.2-4.8 11.4-4.8s8.188 1.563 11.312 4.688c6.25 6.258 6.25 16.382 0 22.64-246.312 246.492-601.112 318.864-911.912 218.692l29.62-23.54c294.78 87.22 627.38 14.64 859.58-217.68zM25.98 956.54c-2.94 2.327-6.44 3.46-9.934 3.46-4.702 0-9.378-2.054-12.57-6.024-5.5-6.938-4.344-17 2.558-22.5l1247.8-992c2.966-2.276 6.566-3.476 9.966-3.476 4.688 0 9.376 2.062 12.532 6.032 5.496 6.938 4.34 17-2.562 22.5l-1247.79 992.008zM638.2 257.8c-70.68 0-128-57.3-128-128.020s57.32-128.020 128-128.020 128 57.3 128 128.020-55.6 128.020-128 128.020zM638.2 33.8c-52.94 0-96 43.080-96 96.040s43.080 94.2 96.020 94.2 95.98-43.040 95.98-94.2c0-54.64-41.2-96.040-96-96.040z" />
<glyph unicode="&#xe921;" glyph-name="wifi-fair" horiz-adv-x="1280" d="M638.2 256c-70.68 0-128-57.32-128-126.2 0-70.68 57.32-128 128-128s128 57.32 128 128c0 68.8-55.6 126.2-128 126.2zM638.2 33.8c-52.94 0-96 43.060-96 96s43.080 94.2 96.020 94.2 95.98-43.060 95.98-94.2c0-54.8-41.2-96-96-96zM640 576c-150.2 0-291.4-58.4-397.6-164.6-6.25-6.248-6.25-16.376 0-22.62 6.25-6.25 16.376-6.25 22.62 0 100.18 100.020 233.38 155.22 374.98 155.22s274.8-55.16 375-155.3c3-3.1 7.2-2.9 11.2-2.9s8.188 1.562 11.312 4.69c6.25 6.248 6.25 16.376 0 22.62-106.112 104.49-247.312 162.89-397.512 162.89z" />
<glyph unicode="&#xe922;" glyph-name="wifi-exclamation" horiz-adv-x="1280" d="M638.2 192c-52.98 0-95.96-42.98-95.96-96s44.76-96 95.96-96 95.94 42.98 95.94 96-41.14 96-95.94 96zM638.2 32c-35.26 0-63.96 28.72-63.96 64s28.68 64 63.96 64 63.96-28.72 63.96-64-26.96-64-63.96-64zM640 288c8.812 0 16 7.188 16 16v576c0 8.82-7.2 16-16 16s-16-7.18-16-16v-576c0-8.8 7.2-16 16-16zM4.688 610.6c6.25-6.258 16.376-6.258 22.62 0 136.312 136.2 307.292 215.64 484.692 241.76v32.22c-185.8-26.34-364.8-108.84-507.312-251.38-6.251-6.4-6.251-16.4 0-22.6zM242.4 388.8c6.25-6.25 16.376-6.25 22.62 0 68.98 69.2 154.58 113.8 246.98 136.4v34.2c-101-23.4-194.4-72.6-269.6-147.8-6.2-6.4-6.2-16.4 0-22.8zM768 559.4v-34.14c92.42-22.6 177.96-67.32 247-136.36 3.124-3.124 7.188-4.688 11.312-4.688s8.188 1.563 11.312 4.688c6.25 6.25 6.25 16.382 0 22.64-75.224 75.26-168.624 124.46-269.624 147.86zM1275.4 633.2c-142.6 142.54-321.6 225.040-507.4 251.4v-32.22c177.44-26.14 348.4-105.52 484.6-241.8 3.2-3.18 7.2-4.78 11.4-4.78s8.188 1.563 11.312 4.688c6.288 6.312 6.288 16.312 0.088 22.712z" />
<glyph unicode="&#xe923;" glyph-name="whistle" horiz-adv-x="1280" d="M55.44 776.56c30.18 30.24 82.94 30.24 113.12 0 6.25-6.25 16.376-6.25 22.62 0s6.25 16.376 0 22.62c-42.24 42.38-116.12 42.38-158.38 0-21.144-21.18-32.8-49.18-32.8-79.18s11.656-58 32.82-79.18c3.124-3.124 7.218-4.688 11.312-4.688s8.188 1.563 11.312 4.688c6.25 6.25 6.25 16.376 0 22.62-31.204 31.16-31.204 81.96-0.004 113.12zM1255.4 306.4l-254.8 198.12c-8.574 6.672-23.22 10.242-36.6 1.875l-68-42.395-64 48 32.82 65.62c6.82 13.644 3.062 30.2-8.976 39.58l-176.52 137.3c-64.324 48.64-144.524 77.5-231.324 77.5-27.2 0-55-2.84-83.2-8.84-145.2-30.82-262.66-148.36-292.46-293.96-50.74-247.6 137.060-465.2 375.66-465.2 127.3 0 239.8 62.2 309.6 157.6l301.8-150.86c9.2-4.54 18.8-6.74 28.6-6.74 16.562 0 32.94 6.438 45.26 18.75l128 128c13 13 19.75 30.88 18.624 49.24-1.084 18.41-10.084 35.21-24.484 46.41zM1238.6 233.4l-128-126.2c-10.696-10.688-25.82-11.558-36.94-6.008l-301.8 150.86c-19.926 9.964-35.72-3.704-40.12-9.714-66.14-90.538-172.34-146.338-283.74-146.338-106.2 0-205.6 47.26-272.8 129.64-67.3 84.16-93.34 190.76-71.52 297.16 27.2 132.8 134.72 240.84 267.72 269.060 25.6 5.4 51.2 8.14 74.8 8.14 76.8-0.004 150.020-24.68 211.8-71.34 1.254-0.945 2.55-1.781 3.89-2.512l172.54-134.2-32.82-65.62c-6.918-13.836-2.95-30.64 9.422-39.92l64-48c10.368-6.408 24.768-9.808 37.968-1.608l67.98 42.5 254.8-198.14c15.22-11.76 16.22-34.36 2.82-47.76zM448 576c-70.6 0-129.8-57.4-129.8-128s57.3-128 128-128 128 57.3 128 128-55.6 128-126.2 128zM448 353.8c-53 0-96 41.2-96 94.2s43 96 96 96 96-43 96-96-43-94.2-96-94.2z" />
<glyph unicode="&#xe924;" glyph-name="whiskey-glass-ice" d="M696.6 461.8c-31.24 31.24-82.12 31.24-113.38 0l-90.42-90.8c-31.18-31.18-31.18-81.94 0-113.12l90.5-90.76c15.624-15.624 36.12-23.44 56.68-23.44 20.5 0 41.060 7.812 56.68 23.44l90.5 90.76c31.18 31.18 31.18 81.94 0 113.12l-90.56 90.8zM764.6 280.6l-90.5-90.76c-18.75-18.75-49.38-18.75-68.12 0l-90.5 90.76c-18.688 18.688-18.688 49.18 0 67.88l90.5 90.76c9.376 9.376 21.76 14.062 34.060 14.062s24.68-4.688 34.060-14.062l90.5-90.76c18.6-18.68 18.6-49.28 0-67.88zM319.8 528h128c26.44 0 48-21.56 48-48v-16c0-8.812 7.188-16 16-16s16 7.188 16 16v16c0 44.12-35.88 80-80 80h-128c-44.12 0-80-35.88-80-80v-128c0-44.12 35.88-80 80-80h96.12c8.812 0 16 7.188 16 16s-7.188 16-16 16h-96.12c-26.44 0-47.92 21.48-47.92 47.92l-0.080 128.080c0 26.4 21.6 48 48 48zM905 832h-786.060c-33.42 0-58.92-29.58-54.42-62.58l95.98-611.4c7.72-52.22 53.9-94.020 108.9-94.020h486.2c54.42 0 100.92 40.080 108.62 94.1l95.34 611.4c2.64 32.92-21.16 62.5-54.56 62.5zM870.2 416h-23.98c-8.836 0-16-7.164-16-16s7.164-16 16-16h18.992l-34.52-221.4c-3.692-38-38.492-66.6-75.092-66.6h-486.2c-38.56 0-71.74 28.64-77.22 67.060l-34.76 220.94h18.582c8.836 0 16 7.164 16 16s-7.164 16-16 16h-23.602l-56.18 357.74c-1.24 9.12 2.92 15.48 5.52 18.44 2.54 2.92 8.16 7.82 17.2 7.82h786.2c9.028 0 14.652-4.898 17.204-7.82 2.59-2.968 6.754-9.312 5.598-17.836l-57.742-358.344z" />
<glyph unicode="&#xe925;" glyph-name="whiskey-glass" d="M905 832h-786.060c-33.42 0-58.92-29.58-54.42-62.58l95.98-611.4c7.72-52.22 53.9-94.020 108.9-94.020h486.2c54.42 0 100.92 40.080 108.62 94.1l95.34 611.4c2.64 32.92-21.16 62.5-54.56 62.5zM832.4 162.6c-5.4-38-40.2-66.6-76.8-66.6h-486.2c-38.56 0-71.74 28.64-77.22 67.060l-34.76 220.94h709.6l-34.62-221.4zM870.2 416h-717.8l-56.18 357.74c-1.24 9.12 2.92 15.48 5.52 18.44 2.54 2.92 8.16 7.82 17.2 7.82h786.2c9.028 0 14.652-4.898 17.204-7.82 2.59-2.968 6.754-9.312 5.598-17.836l-57.742-358.344z" />
<glyph unicode="&#xe926;" glyph-name="wheelchair" d="M384 752c57.44 0 104 46.56 104 104s-46.6 104-104 104-104-46.56-104-104 46.6-104 104-104zM384 928c39.7 0 72-32.3 72-72s-32.3-72-72-72c-39.7 0-72 32.3-72 72s32.4 72 72 72zM620.6 207.6c-8.376 1.937-17.124-3.624-19-12.25-28.2-131.75-146.6-227.35-281.6-227.35-158.82 0-288 129.18-288 288 0 134.94 95.62 253.4 227.4 281.6 8.656 1.812 14.156 10.312 12.312 19-1.844 8.624-10.532 14.188-19 12.25-146.452-31.25-252.712-162.85-252.712-312.85 0-176.44 143.56-320 320-320 149.94 0 281.4 106.26 313 252.6 1.8 8.8-3.8 17.2-12.4 19zM1020.6 116.2c-8.942 26.78-33.66 43.76-60.52 43.76-6.746 0-13.626-1.074-20.42-3.332l-38.76-12.876-83.4 199.94c-9.7 26.108-33.1 40.308-59.3 40.308h-195.56l-20.8 96h130.22c35.38 0 64 28.62 64 64s-28.62 64-64 64h-157.96l-2.9 13.6c-7 47.8-48.6 82.4-97 84.2-4.464 0-8.964-0.316-13.492-0.965-52.508-9.235-87.308-57.835-79.708-110.435l47.36-280.8c3.24-32.8 30.84-57.6 63.64-57.6h282.8l89.72-215.8c10.080-24.8 34.080-40.2 59.48-40.2 6.688 0 13.562 1.063 20.24 3.312l96 32c33.56 11.088 51.56 47.288 40.36 80.888zM988.6 81.6c-3.816-7.618-10.36-13.29-18.46-15.976l-96.080-32.040c-3.26-0.984-6.66-1.584-10.060-1.584-13.152 0-24.82 7.914-29.88 20.54l-97.92 235.46h-304.2c-16.488 0-30.18 12.372-32.12 30.86l-47.28 280.14c-5 34.8 19.4 67.4 54.4 72.4 3 0.4 6 2.4 7.2 2.4 33.4-1.8 60.8-25.4 65.6-59l8.4-38.8h183.8c17.6 0 32-14.4 32-32s-14.4-32-32-32h-169.8l34.68-160h221.4c13.176 0 24.84-7.902 29.92-20.58l94.84-227.4 66.94 22.24c3.394 1.129 6.876 1.703 10.34 1.703 13.664 0 25.78-8.804 30.16-21.88 2.52-8.083 1.92-16.683-1.88-24.483z" />
<glyph unicode="&#xe927;" glyph-name="wheelchair-move" horiz-adv-x="896" d="M832 856c0-57.44-46.6-104-104-104s-104 46.56-104 104c0 57.44 46.6 104 104 104s104-46.56 104-104zM728 928c-39.8 0-72-32.24-72-72s32.2-72 72-72c39.8 0 72 32.24 72 72s-32.2 72-72 72zM112 256c0 114.8 93.2 208 208 208s208-93.2 208-208c0-114.8-93.2-208-208-208s-208 93.2-208 208zM320 432c-97.2 0-176-78.8-176-176s78.8-176 176-176c97.2 0 176 78.8 176 176s-78.8 176-176 176zM640 256c0-176.8-143.2-320-320-320-176.74 0-320 143.2-320 320s143.26 320 320 320c176.8 0 320-143.2 320-320zM320 544c-159.060 0-288-129-288-288s128.94-288 288-288c159 0 288 129 288 288s-129 288-288 288zM777.2 373.8c6-9.4 8.4-19.2 6.2-28.8l-46.6-210c-3.8-17.4 7-34.4 24.2-38.2 17.4-3.8 34.4 7 38.2 24.2l64 288c2.2 9.6-0.2 19.4-6.2 28.8-6.2 5.8-15.2 10.2-25 10.2h-179.4c-6.4 11-13.2 21.8-22.4 32h201.8c19.4 0 37.8-8.8 48.2-22.2 13.8-16.8 18.4-36.8 14.2-55.6l-64-288c-7.6-34.6-41.8-56.4-76.2-48.6-34.6 7.6-56.4 41.8-48.6 76.2l46.6 210.2h-62c-1 10.8-4.4 21.6-8 32h70c8 0 19-4.4 25-10.2v0zM674.8 597.2l-72.6-80.8c-7.4 8-14.8 15.4-22.8 22.8l71.6 79.4c28.6 31.8 18.4 82.4-20.4 100.6l-233 109.76c-10.6 5.040-23.4 3.74-32.8-3.36l-128-96c-14.2-10.6-17-30.6-6.4-44.8s30.6-17 44.8-6.4l97.2 72.8c9.4 7.2 22 8.4 32.8 3.4l101.6-47.8c9.6-4.4 16.2-13.2 18-23.4 1.8-10.4-1.6-20.8-10.6-28.2l-44-45.6c-10.8 6.2-21.8 8.6-33 12.2l56 56-101.6 47.8-97.2-72.8c-28.2-21.2-68.4-15.4-89.6 12.8s-15.48 68.4 12.8 89.6l128 96c19 14.22 44.2 16.8 65.6 6.7l233-109.7c58.4-27.4 73.6-103.2 30.6-151v0z" />
<glyph unicode="&#xe928;" glyph-name="wheat" d="M784.4 673.8c76.4 0 139.78 20.38 180.68 58.5 0.281 0.25 0.563 0.5 0.844 0.813 57.54 62.14 60.46 160.020 57.1 212.8-0.5 8.064-6.906 14.438-14.938 14.938-52.68 3.312-150.040 0.438-212.6-57.82-65.22-65.68-60.98-174.14-58.28-205.2l-732.518-734.431c-6.25-6.25-6.25-16.376 0-22.62 3.124-3.18 7.218-4.78 9.512-4.78s8.188 1.563 11.312 4.688l734.088 732.312c6.6-0.6 16.8 0.8 24.8 0.8zM817.8 878.32c48.32 45 124.4 51.26 172.2 49.5 2.312-74.56-15.218-137.52-48.94-174.26-37.66-34.82-99.18-52.44-174.16-49.2-0.3 33.24-0.5 122.22 50.9 173.96zM144.6 169.6c3.938 0 7.876 1.438 10.968 4.376 6.438 6.062 6.75 16.188 0.688 22.62-30.94 32.82-68.18 83.7-70.060 138.58 1.531 48 29.4 100.44 78.84 148.82 23.46-21.76 78.78-80.26 78.94-148.26-0.344-9.75-1.906-19.752-4.938-31.44-2.188-8.564 2.938-17.314 11.5-19.502 8.562-1.938 17.312 3 19.5 11.5 3.594 14.002 5.5 26.12 5.938 38.94-0.176 101.766-97.296 179.566-101.416 182.966-6.156 4.812-14.906 4.562-20.72-0.75-62.34-56.88-97.72-121.26-99.66-182.32 2.218-65.88 44.060-123.64 78.74-160.52 3.18-3.41 7.42-5.010 11.68-5.010zM400.2 211.6c-12.468 0-25.28-1.75-40.32-5.5-8.562-2.126-13.782-10.814-11.656-19.376 2.124-8.5 10.562-13.876 19.406-11.626 12.406 3.062 22.76 4.5 32.040 4.5 61.88-2.062 116.12-46.2 147.84-78.7-47.88-48.76-101.32-77.44-147.28-79.14-56.88 1.875-107.32 39.32-139.62 70.38-6.312 6.062-16.438 5.938-22.62-0.375-6.124-6.376-5.938-16.502 0.437-22.62 36.34-35 93.72-77.14 161.88-79.38 80.66 3 148.040 64.14 181.040 100.38 5.562 6.062 5.594 15.376 0.031 21.5-32.779 36.157-99.779 97.157-181.179 99.957zM354.4 379.4c3.938 0 7.876 1.438 10.968 4.376 6.438 6.062 6.718 16.188 0.656 22.62-31.024 32.804-68.224 83.604-71.824 138.404 1.563 48.060 29.44 100.5 78.82 148.88 23.5-21.94 78.82-80.64 79-148.2 1.38-9.68-0.22-19.68-3.22-31.48-2.2-8.6 3-17.4 11.4-19.6 8.4-2 17.4 3 19.6 11.6 3.594 14.002 5.5 26.18 5.968 39-0.368 101.2-97.368 179.6-101.368 182.8-6.2 5-15 4.8-20.8-0.6-62.4-56.8-97.8-121.2-101.4-182.4 4-66 44-123.6 80.4-160.4 3.2-3.4 7.4-5 11.8-5zM608.2 421.2c-12.594 0-25.78-1.813-40.38-5.5-8.562-2.188-13.75-10.876-11.562-19.44 2.124-8.5 10.688-13.938 19.438-11.564 12.124 3.062 22.46 4.5 31.96 4.5 61.88-2.062 116.16-46.2 147.88-78.64-47.88-48.82-101.28-77.44-147.28-79.14-56.9 1.875-107.34 39.32-139.62 70.38-6.312 6.126-16.438 5.938-22.62-0.375-6.124-6.376-5.938-16.502 0.437-22.62 36.32-35 93.68-77.14 161.84-79.38 80.68 2.876 148.1 64.14 181.1 100.38 5.532 6.062 5.562 15.376 0 21.5-30.993 36.099-97.993 97.099-181.193 99.899zM546.4 571.4c3.938 0 7.876 1.438 10.968 4.376 6.438 6.064 6.718 16.188 0.656 22.62-31.024 32.804-68.224 83.604-71.824 138.404 1.563 48.060 29.44 100.5 78.82 148.88 23.5-21.94 78.82-80.64 79-148.2-0.375-9.814-1.937-19.814-4.968-31.56-2.188-8.564 2.968-17.314 11.532-19.502 8.406-2.062 17.282 2.938 19.468 11.5 3.594 14.002 5.5 26.18 5.968 39-0.281 101.2-97.28 179.64-101.4 182.9-6.188 5.062-15 4.688-20.76-0.688-62.32-56.88-97.68-121.26-99.66-182.4 2.218-65.94 44.060-123.64 78.78-160.46 4.82-3.27 9.020-4.87 13.42-4.87zM800.2 613.2c-12.594 0-25.78-1.813-40.38-5.5-8.562-2.188-13.75-10.876-11.562-19.44 2.124-8.564 10.718-13.876 19.438-11.564 12.124 3.062 22.46 4.5 31.96 4.5 61.88-2.062 116.16-46.2 147.88-78.64-47.88-48.82-101.28-77.44-147.28-79.14-56.9 1.875-107.34 39.32-139.62 70.38-6.282 6.064-16.406 5.938-22.62-0.375-6.124-6.376-5.938-16.502 0.437-22.62 36.32-35 93.68-77.14 161.84-79.38 80.68 2.876 148.1 64.14 181.1 100.38 5.532 6.062 5.562 15.376 0 21.5-30.993 36.099-97.993 97.099-181.193 99.899z" />
<glyph unicode="&#xe929;" glyph-name="wheat-slash" horiz-adv-x="1280" d="M894.2 430l46.7-37.12c75.82 7.652 138.82 64.44 170.3 99.060 5.532 6.062 5.562 15.378 0 21.5-32.76 36.12-99.78 97.14-181.18 99.88-12.594 0-25.78-1.812-40.38-5.5-8.562-2.188-13.75-10.876-11.562-19.442 2.124-8.562 10.718-13.876 19.438-11.562 12.124 3.062 22.46 4.5 31.96 4.5 61.88-2.062 116.16-46.2 147.88-78.64-47.88-48.82-101.28-77.44-147.28-79.12-12.476 0.244-24.276 3.044-35.876 6.444zM528.2 211.6c-12.468 0-25.28-1.75-40.32-5.5-8.562-2.124-13.782-10.812-11.656-19.376 2.124-8.504 10.562-13.878 19.406-11.628 12.406 3.062 22.76 4.504 32.040 4.504 61.88-2.066 116.12-46.2 147.84-78.7-47.88-48.76-101.32-77.44-147.28-79.14-56.88 1.875-107.32 39.32-139.62 70.38-6.312 6.062-16.438 5.938-22.62-0.375-6.124-6.378-5.938-16.504 0.437-22.62 36.34-35 93.72-77.14 161.88-79.38 80.66 3 148.040 64.14 181.040 100.38 5.562 6.062 5.594 15.376 0.031 21.5-32.779 36.155-99.779 97.155-181.179 99.955zM687.6 594.2c-0.684 1.371-0.484 3-1.59 4.176-31.010 32.824-68.21 83.624-71.81 138.424 1.563 48.060 29.44 100.5 78.82 148.88 23.5-21.94 78.82-80.64 79-148.2-0.375-9.816-1.937-19.816-4.968-31.56-2.188-8.562 2.968-17.312 11.532-19.504 8.406-2.062 17.282 2.942 19.468 11.504 3.594 14 5.5 26.18 5.968 39-0.281 101.2-97.28 179.64-101.4 182.88-6.188 5.066-15 4.692-20.76-0.688-60.66-56.792-96.060-121.172-99.66-182.312 0.91-27 8.644-52.5 19.632-75.86l85.768-66.74zM729.8 560.6l25.22-20.040 132.44 132.46c8.41-0.469 16.79-0.891 24.92-0.891 76.4 0 139.78 20.38 180.68 58.5 0.281 0.25 0.563 0.5 0.844 0.812 57.54 62.14 60.46 160.020 57.1 212.8-0.5 8.062-6.906 14.438-14.938 14.938-52.68 3.312-150.040 0.437-212.6-57.82-65.22-65.68-60.98-174.14-58.28-205.2l-135.386-135.56zM945.8 878.34c48.32 45 124.4 51.26 174 49.5 2.312-74.58-15.218-137.52-48.94-174.26-37.66-34.82-99.18-52.44-174.16-49.2-2.1 33.22-2.3 122.2 49.1 173.96zM378.6 284.8c8.562-1.937 17.312 3 19.5 11.5 3.594 14 5.5 26.12 5.938 38.94-0.238 101.76-97.438 179.56-101.438 182.96-6.2 4.8-15 4.6-20.8-0.8-62.34-56.88-97.72-121.26-99.66-182.32 2.218-65.88 44.060-123.64 78.76-160.52 3.156-3.312 7.406-5 11.656-5 3.938 0 7.876 1.437 10.968 4.376 6.438 6.066 6.75 16.192 0.688 22.62-30.94 32.82-68.18 83.7-70.060 138.58 1.531 48 29.4 100.44 78.84 148.82 23.46-21.76 78.78-80.26 78.94-148.26-0.344-9.75-1.906-19.754-4.938-31.44-2.194-8.456 1.206-17.256 11.606-19.456zM524.8 355.6l-392.2-392.2c-6.25-6.25-6.25-16.378 0-22.62 3.22-3.18 7.3-4.78 11.4-4.78s8.188 1.563 11.312 4.688l394.8 394.8-25.312 20.112zM1272.2-35.4l-1246.22 991.94c-2.94 2.327-6.44 3.46-9.934 3.46-4.702 0-9.378-2.058-12.574-6.024-5.5-6.938-4.344-17 2.562-22.5l1246.2-992c4.766-2.276 8.166-3.476 9.966-3.476 4.688 0 9.376 2.062 12.532 6.032 7.268 6.968 6.068 16.968-2.532 22.568z" />
<glyph unicode="&#xe92a;" glyph-name="wheat-awn" d="M27.32-59.4c-6.26-6.2-16.386-6.2-22.634 0s-6.248 16.4 0 22.6l992.114 992.098c6.2 6.248 16.4 6.248 22.6 0s6.2-16.378 0-22.618l-992.080-992.080zM737.6 831.22c-6.4-6.26-16.4-6.26-22.6 0-6.4 6.24-6.4 16.36 0 22.62l78.8 78.92c6.2 6.24 16.4 6.24 22.6 0 6.2-6.26 6.2-16.38 0-22.64l-78.8-78.9zM916.2 650.8c-4.6-6.2-14.6-6.2-21 0-6.2 6.2-6.2 16.4 0 22.6l79 79c6.2 6.2 16.4 6.2 22.6 0s6.2-16.4 0-22.6l-80.6-79zM685.6 692.8c-1.8-8.6-10.2-14.2-18.8-12.6-8.8 3.6-14.4 10.2-12.6 19 19 95.060-31 155.1-74.4 199.38-34-36.080-62.2-77.14-70.4-122.28-8.6-48.7 5.4-105.5 70.4-170.5 4.4-6.2 4.4-16.4 0-22.6-6.4-6.2-16.4-6.2-22.6 0-70.6 70.4-90.2 137.4-81 198.74 12.6 59.88 52 110.68 92.2 150.78 6.2 6.26 16.4 6.26 22.6 0l0.8-0.7c44.8-44.9 118-118.020 93.8-239.22v0zM460 467.4c-1.6-8.6-11.8-14.4-18.8-12.6-8.6 1.8-14.2 10.2-12.4 18.8 19 95.2-31 155.2-74.4 199.4-34-36-62.2-77-70.4-122.2-8.6-48.6 5.4-105.6 70.2-170.4 6.4-6.2 6.4-14.6 0-22.6-6.2-6.2-16.4-6.2-22.6 0-70.4 70.4-90 137.4-79 198.6 10.6 60 50.2 110.8 90.4 150.8 6.2 6.2 16.2 6.2 22.6 0l0.6-0.6c45-45 118.2-118 93.8-239.2v0zM245.8 253.2c-1.6-8.6-10-14.2-18.8-12.6-8.6 1.8-14.2 10.2-12.4 18.8 19 95.2-31.040 155.2-74.44 199.6-33.94-36.2-62.22-77.2-70.32-122.4-8.74-46.8 5.38-105.6 70.24-170.4 6.24-6.2 6.24-16.4 0-22.6-6.26-6.2-16.38-6.2-22.64 0-70.4 70.4-90.1 137.4-79.1 198.6 10.74 60 50.26 110.8 90.38 150.8 6.24 6.4 16.36 6.4 22.62 0l0.72-0.6c44.9-45 118.14-118 93.74-239.2v0zM567.6 99.2l0.8-0.6c6.2-6.2 6.2-16.4 0-22.6-40.2-40.2-91-79.6-150.8-90.4-61.2-11-128.2 8.6-198.6 79-6.4 6.4-6.4 16.4 0 22.6 6.2 6.4 16.2 6.4 22.6 0 64.8-64.8 121.8-78.8 168.6-70.2 47 8.2 88 36.4 124 70.4-46 43.4-106 93.4-199.4 74.4-8.6-1.8-17 3.8-20.6 12.4 0 8.8 5.6 17.2 14.4 19 121 24.2 194.2-49 239-94v0zM771.4 278.8c-40.2-40-91-79.6-150.8-90.4-61.4-11-128.4 8.8-198.8 79.2-6.2 6.2-6.2 16.4 0 22.6s16.4 6.2 22.6 0c65-64.8 121.8-79 170.4-70.2 45.2 9.8 86.2 36.4 122.4 70.2-44.4 43.4-104.4 93.4-199.4 74.4-8.8-1.6-17.2 4-19 12.6-1.6 8.6 4 17 12.6 20.6 121.2 22.4 194.4-50.6 239.2-95.6l0.8-0.8c6.2-6.2 6.2-16.2 0-22.6v0zM996.8 504.4c-40.2-40.2-91-79.8-150.8-90.4-61.2-11-128.2 8.6-198.8 79-6.2 6.2-6.2 16.4 0 22.6 6.4 6.4 16.4 6.4 21 0 66.6-64.8 123.6-78.8 172.2-70.2 45 8.2 86.2 36.4 122.2 70.4-44.2 43.4-104.2 93.4-199.4 74.4-8.6-1.8-17.2 3.8-18.8 12.4-1.8 8.8 3.8 17.2 12.6 18.8 121 24.4 194.2-48.8 239-93.8l0.8-0.6c6.2-6.4 6.2-16.4 0-22.6v0z" />
<glyph unicode="&#xe92b;" glyph-name="wheat-awn-slash" horiz-adv-x="1280" d="M848 832c4.124 0 8.188 1.563 11.312 4.688l80 80c3.088 3.132 4.688 7.212 4.688 11.312 0 9.14-7.472 16-16 16-4.094 0-8.188-1.563-11.312-4.688l-80-80c-3.088-3.132-4.688-7.212-4.688-11.312 0-5.82 4.6-16 16-16zM1136 736c0 9.14-7.472 16-16 16-4.094 0-8.188-1.563-11.312-4.688l-80-80c-3.088-3.112-4.688-5.512-4.688-11.312s4.6-16 16-16c4.124 0 8.188 1.563 11.312 4.688l80 80c3.088 3.112 4.688 7.312 4.688 11.312zM755.2 540.4l392.2 392.2c3 3.22 4.6 7.3 4.6 11.4 0 9.14-7.4 16-16 16-4.094 0-8.188-1.563-11.312-4.688l-394.8-394.8 25.312-20.112zM687.8 594c-11.472 21.88-69.4 67.56-71.98 142.96 1.563 48.060 29.44 100.5 78.82 148.88 23.5-21.94 78.82-80.64 79-148.2-0.754-19.718-5.472-30.18-5.472-35.54 0-7.91 6.308-15.984 15.868-15.984 7.114 0 13.782 4.704 15.636 11.964 3.594 14 5.5 26.18 5.968 39-0.289 104.020-101.42 186.48-111.38 186.48-18.124 0-107.46-94.22-110.42-186.66 0.96-25.9 9.56-52.5 20.96-75.1l83-67.8zM895.6 428.8l45.34-36.040c75.82 7.652 138.8 64.44 170.3 99.060 2.77 3.036 4.16 6.886 4.16 10.746 0 8.864-82.82 107.18-185.34 110.64-12.594 0-25.78-1.812-40.38-5.5-7.238-1.848-12.062-8.34-12.062-15.476 0-8.036 6.304-16.070 15.816-16.070 5.664 0 16.864 5.042 36.080 5.042 61.88-2.062 116.16-46.2 147.88-78.64-47.88-48.82-101.28-77.44-147.28-79.12-12.514 0.358-23.714 2.558-34.514 5.358zM528.2 211.6c-12.468 0-25.28-1.75-40.32-5.5-7.27-1.805-12.128-8.34-12.128-15.512 0-7.852 6.192-16.004 15.828-16.004 5.5 0 17.606 5.016 36.080 5.016 61.88-2.066 116.12-46.2 147.84-78.7-47.88-48.76-101.32-77.44-147.28-79.14-85.9 2.832-133.44 74.84-150.74 74.84-5.848 0-15.988-4.41-15.988-15.934 0-18.95 87.78-88.3 166.78-90.92 104.52 3.886 185.22 103.3 185.22 111.14 0 3.84-1.383 7.684-4.156 10.738-32.736 36.176-99.736 97.176-181.136 99.976zM525 355.6l-392.2-392.2c-3.24-3.2-4.8-5.6-4.8-11.4s4.56-16 16-16c4.124 0 8.188 1.563 11.312 4.688l394.888 394.712-25.2 20.2zM382.2 284.4c7.234 0 13.89 4.66 15.758 11.918 3.594 14 5.5 26.12 5.938 38.94-0.096 104.542-101.096 186.342-111.296 186.342-18.18 0-107.5-94.18-110.44-186.52 2.624-77.92 73.16-165.52 90.4-165.52 9.954 0 16.008 8.382 16.008 16.042 0 18.376-71.56 65.94-74.42 149.54 1.531 48 29.4 100.44 78.84 148.82 23.46-21.76 78.78-80.26 78.94-148.26-0.688-19.464-5.442-30.14-5.442-35.44 0.114-7.662 6.114-15.862 15.714-15.862zM1272.2-35.4l-1246.22 991.94c-2.92 2.327-6.438 3.46-9.93 3.46-4.702 0-9.378-2.058-12.574-6.024-5.5-6.938-4.344-17 2.562-22.5l1246.2-992c4.762-2.276 8.162-3.476 9.962-3.476 4.688 0 9.376 2.062 12.532 6.032 7.268 6.968 6.068 16.968-2.532 22.568z" />
<glyph unicode="&#xe92c;" glyph-name="wheat-awn-circle-exclamation" horiz-adv-x="1280" d="M27.28-59.4c-6.24-6.2-16.376-6.2-22.626 0-6.247 6.2-6.247 16.4 0 22.6l992.146 992.16c6.2 6.249 16.4 6.249 22.6 0s6.2-16.38 0-22.62l-992.12-992.14zM737.6 831.28c-6.4-6.26-16.4-6.26-22.8 0-6.2 6.24-6.2 16.36 0 22.62l79 78.92c6.2 6.24 16.4 6.24 22.6 0 6.2-6.26 6.2-16.38 0-22.64l-78.8-78.9zM916.2 650.8c-4.6-6.2-14.6-6.2-21 0-6.2 6.4-6.2 16.4 0 22.8l79 78.8c6.2 6.2 16.4 6.2 22.6 0s6.2-14.6 0-22.6l-80.6-79zM685.6 692.8c-1.8-8.6-10.2-14.2-19-12.4-8.6 3.4-14.2 10-12.4 18.8 19 95.1-31 155.16-74.4 199.46-34-36.1-62.2-77.16-70.4-122.32-8.6-48.54 5.4-105.54 70.2-170.54 4.6-6.2 4.6-16.4 0-22.6-6.2-6.2-16.2-6.2-22.6 0-70.4 70.4-90 137.6-80.8 198.8 12.4 59.88 52 110.68 92.2 150.8 6.2 6.26 16.4 6.26 22.6 0l0.6-0.72c45-44.9 118.2-118.040 94-239.28v0zM460 467.4c-1.6-8.6-10.2-14.2-18.8-12.6-8.6 1.8-14.2 10.2-12.6 18.8 19.2 95.2-30.8 155.2-74.2 199.6-34-36.2-62.4-75.4-72.2-122.4-7-48.6 7.2-105.6 72-170.4 6.2-6.2 6.2-14.6 0-22.6-8-6.2-16.4-6.2-22.6 0-70.4 70.4-90.2 137.4-79.2 198.8 10.8 59.8 50.4 110.6 90.4 150.8 6.4 6.2 16.4 6.2 22.6 0l0.8-0.8c45-44.8 118-118 93.8-239.2v0zM245.8 253.2c-1.6-8.6-10.2-14.2-18.8-12.6-8.6 1.8-14.2 10.2-12.6 18.8 19.2 95.2-30.9 155.2-74.3 199.6-33.96-36.2-62.24-77.2-70.34-122.4-8.72-46.8 5.4-105.6 70.26-170.4 6.24-6.2 6.24-16.4 0-22.6-6.26-6.2-16.38-6.2-22.64 0-70.42 70.4-90.12 137.4-79.12 198.8 10.76 59.8 50.28 110.6 90.4 150.8 6.24 6.2 16.38 6.2 22.62 0l0.72-0.8c44.92-44.8 118-118 93.8-239.2v0zM567.6 99.2l0.8-0.6c6.2-6.4 6.2-16.4 0-22.6-40.2-40.2-91-79.8-150.8-90.4-61.2-11-128.4 8.6-198.8 79-6.2 6.2-6.2 16.4 0 22.6 6.2 6.4 16.4 6.4 22.6 0 65-64.8 122-79 168.8-70.2 46.8 8.2 88 36.4 124 70.4-46 43.4-106 93.4-199.4 74.4-8.8-1.8-17.2 3.8-20.6 12.4 0 8.8 5.6 17.2 14.2 19 121.2 24.2 194.4-49 239.2-94v0zM638.2 225.8c0-12 2.2-22.4 3.2-32.4-6.8-2-13.8-3.6-20.8-5-61.4-11-128.4 8.8-198.8 79.2-6.2 6.2-6.2 16.4 0 22.6s16.4 6.2 22.6 0c64.8-64.8 121.8-79 170.4-70.2 8.6 1.4 17 3.8 25.2 6.6l-1.8-0.8zM662.4 348c-33.6 17.4-74.2 26.8-124.8 16.6-8.6-1.6-17 4-18.8 12.6-1.6 8.6 4 17.2 12.6 20.6 58.2 9.8 105.4-1 143.6-20.4-4.6-9.6-8.8-19.4-12.6-29.4zM756.8 621.6c84.2 16.8 145.2-13.4 189.8-48.4-14.8-2-29.4-4.8-43.4-8.6-36.6 23-81.6 37.2-140 25.6-8.6-1.8-17.2 5.6-18.8 12.4-1.8 8.8 3.8 17.2 12.4 19zM647.2 493c-6.2 6.2-6.2 16.4 0 22.6 6.4 6.4 16.4 6.4 22.6 0 22.8-22.8 44.6-39.2 65.6-50.8-7.6-7.8-14.6-16-21.2-24.6-22 12.8-46 30.2-67 52.8v0zM960 97.8c0 15.8 14.4 32 32 32s32-16.2 32-32c0-19.4-14.4-32-32-32s-32 12.6-32 32zM990.2 401.8c10.6 0 16-9 16-16v-192c0-10.6-5.4-16-16-16-7 0-16 5.4-16 16v192c0 7 9 16 16 16zM1280 225.8c0-160.8-129-288-288-288s-288 127.2-288 288c0 157.2 129 288 288 288s288-130.8 288-288zM992 481.8c-141.4 0-256-116.4-256-256 0-143.2 114.6-256 256-256s256 112.8 256 256c0 139.6-114.6 256-256 256v0z" />
<glyph unicode="&#xe92d;" glyph-name="whale" horiz-adv-x="1280" d="M960 704c-182.18 0-353.4-70.94-482.2-199.74l-171.32-165.38c-12.624-12.188-29.24-18.874-46.82-18.874-37.26-0.006-67.66 30.394-67.66 67.594 0 63.12 24.56 122.42 69.16 167.040l19.622 19.622 113.5-27.22c4.184-0.852 8.406-1.267 12.602-1.267 16.718 0 33.060 6.614 45.2 18.766l114.56 114.56c18.032 18.032 8.664 48.96-16.442 53.92l-167.602 33.579-33.6 167.6c-3.2 16.158-17.2 25.796-31.4 25.8-8 0-16-2.948-22.4-9.364l-114.64-114.556c-15.2-15.2-21.74-36.94-17.5-57.8l27.22-113.48-92.020-92c-63.38-63.4-98.26-147.6-98.26-237.4 0-185 150.5-335.4 335.6-335.4h752.4c105.88 0 192 86.12 192 190.2v193.8c0 176.4-143.6 320-320 320zM1248 192c0-88.22-71.78-158.2-160-158.2h-752.4c-167.46-1.8-303.6 134.4-303.6 301.6 0 81.080 31.56 157.3 88.88 214.6l104.72 104.8-31.18 129.84c-2.12 10.44 1.16 21.2 8.78 28.82l114.46 114.44 35.54-177.080 13.692-13.692 177.14-35.4-114.56-114.54c-6.072-5.988-14.272-9.388-22.672-9.388-2.074 0-4.16 0.203-5.136 0.383l-130.864 31.417-32.2-32.4c-50.7-50.6-78.6-118-78.6-189.6 0-54.94 44.7-99.62 99.62-99.62 25.92 0 50.44 9.89 69.040 27.86l171.72 165.76c122.82 122.8 286.020 190.4 459.62 190.4 158.8 0 288-129.2 288-286.2v-193.8zM768 416c-17.672 0-32-14.324-32-30.2 0-17.672 14.328-30.2 32-30.2s32 14.328 32 30.2c0 15.8-14.4 30.2-32 30.2z" />
<glyph unicode="&#xe92e;" glyph-name="weight-hanging" d="M1018.8 99.8l-156.84 535c-13.76 41-49.76 69.2-92.56 69.2h-130.060c20.26 26.8 32.76 59.8 32.76 96-0.1 88.36-71.7 160-160.1 160s-161.8-71.64-161.8-160c0-36.2 12.508-69.2 32.76-96h-128.36c-42.8 0-80.52-28.2-92.52-69.2l-156.854-535c-24.016-81.8 37.734-163.8 123.514-163.8h766.6c85.66 0 147.46 82 123.46 163.8zM384 800c0 70.58 57.42 128 128 128s128-57.42 128-128c0-38.42-17.36-72.52-44.24-96h-167.56c-26.8 23.4-44.2 57.58-44.2 96zM972.8 6.8c-18.4-24.6-46.6-38.8-77.6-38.8h-766.46c-30.86 0-59.12 14.11-77.56 38.7-18.226 24.34-23.78 55-15.246 84.12l156.846 534.98c8.020 27.2 33.42 46.2 61.82 46.2h514.6c28.5 0 53.96-18.964 61.92-46.12l156.84-535c8.64-29.080 3.040-59.88-15.16-84.080z" />
<glyph unicode="&#xe92f;" glyph-name="weight-scale" d="M512 320c176.74 0 320 143.26 320 320s-143.26 320-320 320-320-143.26-320-320 143.2-320 320-320zM512 928c158.8 0 288-129.2 288-288s-129.2-288-288-288-288 129.2-288 288 129.2 288 288 288zM880 832h-32c-8.8 0-16-7.18-16-16s7.188-16 16-16h32c61.76 0 112-50.24 112-112v-608c0-61.76-50.24-112-112-112h-736c-61.76 0-112 50.24-112 112v608c0 61.76 50.24 112 112 112h32c8.82 0 16 7.18 16 16s-7.18 16-16 16h-32c-79.38 0-144-64.62-144-144v-608c0-79.4 64.62-144 144-144h736c79.38 0 144 64.62 144 144v608c0 79.38-64.6 144-144 144zM512 432c44.12 0 80 35.88 80 80 0 26.18-13.464 48.36-32.96 62.96l79.46 170.28c3.75 8 0.25 17.5-7.75 21.24-7.938 3.562-17.562 0.25-21.24-7.75l-79.52-170.38c-5.99 1.45-11.99 3.65-18.39 3.65-44 0-79.6-35.8-79.6-80s35.8-80 80-80zM512 560c26.44 0 48-21.56 48-48s-21.6-48-48-48-48 21.6-48 48 21.6 48 48 48z" />
<glyph unicode="&#xe930;" glyph-name="waveform" horiz-adv-x="1280" d="M1280 385.8c0-10.6-7.2-17.8-16-17.8h-112c-6.876 0-13 4.438-15.188 10.938l-45.44 136.38-83.76-390.6c-1.612-7.718-8.012-13.118-16.012-12.718-7.75 0.25-14.188 6-15.312 13.624l-81 540-111.38-668.4c-1.308-7.624-8.108-13.224-15.908-13.224-7.876 0.063-14.75 5.938-15.812 13.75l-112.188 785.13-112.2-785.080c-1-7.8-7.8-12-15.6-13.8-7.812 0-14.688 5.624-16 13.376l-111.4 668.224-81-540c-1.2-7.6-7.6-13.4-15.2-13.6-9.25-0.25-14.5 5.062-16.124 12.624l-83.856 390.776-45.44-136.4c-2.18-6.6-8.3-11-15.18-11h-112c-8.812 0-16 7.2-16 17.8s7.188 14.2 16 14.2h100.44l60.38 181.060c2.3 6.94 8.62 12.74 16.060 10.94 7.188-0.437 13.25-5.562 14.75-12.624l77.62-362 82.94 553c1.21 7.864 6.21 14.624 15.81 13.624 7.812 0 14.5-5.624 15.812-13.376l111-666 113.388 793.616c1.2 7.88 7.8 13.76 15.8 13.76s14.688-5.876 15.812-13.75l113.38-793.6 111 666c1.408 7.85 7.208 12.67 16.008 13.35 7.8-0.060 14.4-5.82 15.6-13.62l82.94-553 77.62 362c1.44 7.020 5.84 12.22 14.84 12.62 7.376 0.188 13.75-4.062 16.062-10.938l60.338-181.062h100.4c8.8 0 16-7.2 16-14.2z" />
<glyph unicode="&#xe931;" glyph-name="waveform-lines" horiz-adv-x="1280" d="M448 768c-8.8 0-16-7.18-16-16v-608c0-8.812 7.188-16 14.2-16s17.8 7.2 17.8 16v608c0 8.82-7.2 16-16 16zM640 960c-8.8 0-16-7.188-16-16v-992c0-8.812 7.188-16 14.2-16s17.8 7.2 17.8 16v992c0 8.812-7.2 16-16 16zM832 704c-8.8 0-16-7.2-16-16v-480c0-8.812 7.188-16 14.2-16s17.8 7.2 17.8 16v480c0 8.8-7.2 16-16 16zM1024 832c-8.812 0-16-7.188-16-16v-736c0-8.812 7.188-16 14.2-16 10.6 0 17.8 7.2 17.8 16v736c0 8.82-7.2 16-16 16zM1216 512c-8.812 0-16-7.188-16-16v-96c0-8.8 7.2-16 16-16s16 7.188 16 16v96c0 8.8-7.2 16-16 16zM256 576c-8.8 0-16-7.2-16-16v-224c0-8.8 7.2-16 14.2-16 10.6 0 17.8 7.2 17.8 16v224c0 8.8-7.2 16-16 16zM64 512c-8.82 0-16-7.2-16-16v-96c0-8.8 7.18-16 14.2-16s17.8 7.2 17.8 16v96c0 8.8-7.18 16-16 16z" />
<glyph unicode="&#xe932;" glyph-name="wave-triangle" horiz-adv-x="1280" d="M1228.8 438.4l-236.8-315.8c-15.25-20.32-38.56-32-64-32s-48.76 11.688-64 32.060l-473.6 631.54c-18.2 24.42-58.6 24.36-76.8 0l-236.78-315.8c-5.32-7.2-15.38-8.4-22.44-3.2s-8.5 15.2-3.2 22.4l236.82 315.78c30.5 40.62 97.5 40.68 128-0.063l473.6-631.4c18.25-24.5 58.5-24.44 76.76-0.063l236.8 315.8c5.312 7 15.438 8.376 22.44 3.188 7-5.443 8.6-15.443 3.2-22.443z" />
<glyph unicode="&#xe933;" glyph-name="wave-square" horiz-adv-x="1280" d="M1280 448c0-8.8-7.2-16-16-16h-240c-26.44 0-48-21.56-48-48v-256c0-44.12-35.88-80-80-80h-192c-44.12 0-80 35.88-80 80v640c0 26.44-21.56 48-48 48h-192c-26.4 0-48-21.56-48-48v-256c0-44.12-35.88-80-80-80h-240c-8.812 0-16 7.2-16 16s7.188 16 16 16h240c26.44 0 48 21.56 48 48v256c0 44.12 35.88 80 80 80h192c44.12 0 80-35.88 80-80v-640c0-26.44 21.56-48 48-48h192c26.44 0 48 21.56 48 48v256c0 44.12 35.88 80 80 80h240c8.8 0 16-7.2 16-16z" />
<glyph unicode="&#xe934;" glyph-name="wave-sine" horiz-adv-x="1280" d="M1231.4 416.8c-11.4-37.6-115.6-368.8-304.6-368.8-163.5 0-237 209.6-302 394.6-61.2 175-132.6 373.4-271.6 373.4-134.68 0-235.6-217.6-273.8-346-2.58-8.4-11.52-13.6-19.96-10.8-8.5 2.6-13.32 11.4-10.76 20 11.26 37.6 115.44 368.8 304.52 368.8 163.5 0 237-209.6 302-394.6 61.4-175 130.8-373.4 271.6-373.4 134.68 0 235.6 217.6 273.8 346 2.5 8.438 11.624 13.562 19.876 10.75 8.524-2.55 13.324-11.35 10.924-19.95z" />
<glyph unicode="&#xe935;" glyph-name="wave-pulse" horiz-adv-x="1280" d="M1280 464c0-8.8-7.2-16-16-16h-294.2l-123.56-247.2c-3-5.938-9.438-9.562-15.812-8.812-6.562 0.625-12.062 5.188-13.876 11.562l-176.352 611.45-176.6-802.6c-1.6-7-7.8-12.2-15-12.4-7.124 0-13.938 4.75-15.876 11.624l-126.524 436.376h-290.2c-8.812 0-16 7.2-16 16s7.188 16 16 16h304c7.124 0 13.438-4.75 15.376-11.624l110.68-387.4 178.344 802.524c1.6 7.12 7.8 12.24 15.2 12.5 7.124 0 13.938-4.75 15.876-11.624l180.68-632.4 109.62 219.2c2.624 5.424 6.424 8.824 14.224 8.824h304c8.8 0 16-7.2 16-16z" />
<glyph unicode="&#xe936;" glyph-name="watermelon-slice" d="M676.6 443.4c-6.25-6.25-6.25-16.376 0-22.62l32-32c3.2-3.18 7.2-4.78 11.4-4.78s8.188 1.563 11.312 4.688c6.25 6.25 6.25 16.376 0 22.62l-32 32c-6.312 6.292-16.312 6.292-22.712 0.092zM500.6 283.4c-6.25-6.25-6.25-16.376 0-22.62l32-32c3.2-3.18 7.2-4.78 11.4-4.78s8.188 1.563 11.312 4.688c6.25 6.25 6.25 16.376 0 22.62l-32 32c-6.312 6.292-16.312 6.292-22.712 0.092zM676.6 580.6c3.2-3 7.2-4.6 11.4-4.6s8.188 1.563 11.312 4.688c6.25 6.25 6.25 16.376 0 22.62l-32 32c-6.25 6.25-16.376 6.25-22.62 0s-6.25-16.376 0-22.62l31.908-32.088zM347.4 315.4c-6.25 6.25-16.376 6.25-22.62 0s-6.25-16.376 0-22.62l32-32c3.020-3.18 7.020-4.78 11.22-4.78s8.188 1.563 11.312 4.688c6.25 6.25 6.25 16.376 0 22.62l-31.912 32.092zM516.6 420.6c3.2-3 7.2-4.6 11.4-4.6s8.188 1.563 11.312 4.688c6.25 6.25 6.25 16.376 0 22.62l-32 32c-6.25 6.25-16.376 6.25-22.62 0s-6.25-16.376 0-22.62l31.908-32.088zM849.2 955.312c-6.25 6.25-16.376 6.25-22.62 0l-821.892-822.112c-3-3-4.688-7-4.688-11.2 0-4.25 1.688-8.312 4.688-11.312 116.372-116.488 269.312-174.688 422.112-174.688 152.94 0 305.8 58.2 422.2 174.64 112.8 112.76 175 262.76 175 422.36s-62.2 309.5-174.8 422.312zM746.8 830.3c75.36-81.020 117.060-185.8 117.060-297.4 0-116.9-45.38-226.8-127.82-309.2-82.56-82.56-192.32-128.040-309-128.040-111.42 0-216.2 41.78-297.2 117.28l616.96 617.36zM826.6 133.2c-216.8-216.6-566.8-220.2-787.78-11l68.26 68.3c87.12-81.52 199.88-126.66 319.8-126.66 125.32 0 243.2 48.8 331.6 137.42 88.5 88.5 137.18 206.4 137.18 331.8 0 120.080-45.020 232.8-126.44 318.2l68.26 68.28c209.32-217.74 205.52-569.74-10.88-786.34z" />
<glyph unicode="&#xe937;" glyph-name="water" horiz-adv-x="1152" d="M17.174 704.6c62.446 4.6 122.566 35 174.886 88.080 57.74-58.080 123.94-88.68 192.34-88.68h0.75c68.26 0.219 133.94 30.8 190.88 88.64 57.77-58.040 123.97-88.64 192.37-88.64h0.75c68.26 0.219 133.94 30.8 190.88 88.64 52.56-52.78 112.62-83.1 174.7-87.92 10.312-1.281 16.5 5.968 17.188 14.75 0.688 8.844-5.876 16.586-14.688 17.25-58.56 4.578-115.76 35.72-165.44 90.080-2.99 3.32-7.19 5.2-11.79 5.2s-8.812-1.914-11.876-5.266c-53.32-59.060-115.26-90.4-179-90.62l-0.983 0.034c-63.88 0-126.080 31.34-180.34 90.64-3.001 3.332-7.401 5.212-13.601 5.212-2.8 0-7-1.92-10-5.26-53.4-59.060-115.4-90.34-179-90.54h-1c-63.88 0-126.1 31.34-180.34 90.64-3.060 3.28-7.36 5.16-13.66 5.16-2.7 0-7.020-1.92-10.080-5.26-49.32-54.58-106.5-85.74-165.32-90.14-8.812-0.664-15.438-8.376-14.75-17.218 0.687-8.782 6.686-14.982 17.124-14.782zM1137.2 416.8c-58.56 4.578-115.76 35.72-165.44 90.080-2.96 3.32-7.16 5.12-11.76 5.12s-8.812-1.914-11.876-5.266c-53.32-59.060-115.26-90.4-179-90.62h-0.688c-63.88 0-126.38 31.36-180.62 90.68-3.016 3.406-7.416 5.206-13.616 5.206-2.8 0-7-0.2-10-5.2-53.4-59.2-115.4-90.4-179-90.6h-0.8c-63.88 0-126.38 31.36-180.62 90.68-2.98 3.32-7.28 5.12-13.58 5.12s-7.020-0.2-10.080-5.2c-49.32-54.6-106.5-85.8-165.32-90.2-8.812-0.664-15.438-8.376-14.75-17.218 0.688-8.82 6.688-15.094 17.126-14.844 62.444 4.662 122.564 35.062 174.884 88.062 57.74-58 123.94-88.6 192.34-88.6h0.75c68.26 0.219 133.94 30.8 190.88 88.64 57.77-58.040 123.97-88.64 192.37-88.64h0.75c68.26 0.219 133.94 30.8 190.88 88.64 52.56-52.78 112.62-83.1 174.7-87.92 10.312-1.281 16.5 5.968 17.188 14.75 0.682 8.93-5.918 18.33-14.718 17.33zM1137.2 96.8c-58.56 4.578-115.76 35.72-165.44 90.080-2.96 3.32-7.16 5.12-11.76 5.12s-8.812-1.914-11.876-5.266c-53.32-59.060-115.26-90.4-179-90.62h-0.688c-63.88 0-126.38 31.36-180.62 90.68-3.016 3.406-7.416 5.206-13.616 5.206-4.5 0-8.812-1.914-11.876-5.266-53.32-59.060-115.26-90.4-179-90.62h1.076c-63.88 0-126.38 31.36-180.62 90.68-2.98 3.406-7.28 5.206-13.58 5.206s-7.020-0.2-10.080-5.2c-49.32-54.58-106.5-85.76-165.32-90.080-8.812-0.664-15.438-8.376-14.75-17.218 0.688-8.82 6.688-15.094 17.126-14.844 62.44 4.64 122.56 34.98 174.88 88.080 57.82-58.1 123.66-88.68 192.040-88.68l1.104-0.058c68.26 0.219 133.94 30.8 190.88 88.64 57.72-58.040 123.72-88.64 192.12-88.64h1.073c68.26 0.219 133.94 30.8 190.88 88.64 52.56-52.78 112.62-83.1 174.7-87.92 10.312-1.281 16.5 5.968 17.188 14.75 0.559 8.93-6.041 18.33-14.841 17.33z" />
<glyph unicode="&#xe938;" glyph-name="water-ladder" horiz-adv-x="1152" d="M1137.2 32.8c-58.56 4.578-115.76 35.72-165.44 90.080-2.96 3.32-7.16 5.12-11.76 5.12s-8.812-1.914-11.876-5.266c-53.32-59.060-115.26-90.4-179-90.62h-0.724c-63.88 0-126.38 31.36-180.62 90.68-2.98 3.406-7.18 5.206-11.78 5.206s-8.812-1.914-11.876-5.266c-53.32-59.060-115.26-90.4-179-90.62h-0.724c-63.88 0-126.38 31.36-180.62 90.68-2.98 3.406-7.28 5.206-13.58 5.206s-8.812-1.914-11.876-5.266c-49.32-54.58-106.5-85.76-165.32-90.080-8.812-0.664-15.438-8.376-14.75-17.218 0.688-8.82 6.688-15.094 17.124-14.844 62.44 4.64 122.56 34.98 174.88 88.080 57.82-58.1 123.66-88.68 192.040-88.68l2.902 0.008c68.26 0.219 133.94 30.8 190.88 88.64 57.82-58.060 123.66-88.58 192.040-88.58l1.080-0.060c68.26 0.219 133.94 30.8 190.88 88.64 52.56-52.78 112.62-83.1 174.7-87.92 10.312-1.281 16.5 5.968 17.188 14.75 0.632 8.93-5.968 18.33-14.768 17.33zM272 176c8.812 0 16 7.156 16 16v240h480v-238.2c0-10.6 7.2-17.8 16-17.8s16 7.2 16 16v544c0 70.6 57.44 128 128 128s128-57.4 128-128v-80c0-8.8 7.2-16 16-16s16 7.2 16 16v80c0 88.22-71.8 160-160 160s-160-71.78-160-160v-272h-480v272c0 70.6 57.44 128 128 128s128-57.4 128-128v-80c0-8.8 7.2-16 16-16s16 7.2 16 16v80c0 88.22-71.8 160-160 160s-160-71.78-160-160v-544c0-8.8 7.2-16 16-16z" />
<glyph unicode="&#xe939;" glyph-name="water-arrow-up" horiz-adv-x="1152" d="M1137.2-31.2c-58.56 4.578-115.76 35.72-165.44 90.080-2.96 3.32-7.16 5.12-11.76 5.12s-8.812-1.914-11.876-5.266c-53.32-59.060-115.26-90.4-179-90.62h-0.688c-63.88 0-126.38 31.36-180.62 90.68-3.016 3.406-7.416 5.206-13.616 5.206-4.5 0-8.812-1.914-11.876-5.266-53.32-59.060-115.26-90.4-179-90.62h1.076c-63.88 0-126.38 31.36-180.62 90.68-2.98 3.406-7.28 5.206-13.58 5.206s-7.020-0.2-10.080-5.2c-49.32-54.58-106.5-85.76-165.32-90.080-8.812-0.664-15.438-8.376-14.75-17.218 0.688-8.82 6.688-15.094 17.126-14.844 62.44 4.64 122.56 34.98 174.88 88.080 57.82-58.1 123.64-88.68 192.020-88.68l1.124-0.058c68.26 0.219 133.94 30.8 190.88 88.64 57.72-58.040 123.72-88.64 191.92-88.64h1.092c68.26 0.219 133.94 30.8 190.88 88.64 52.56-52.78 112.62-83.1 174.7-87.92 10.312-1.281 16.5 5.968 17.188 14.75 0.74 8.93-5.86 18.33-14.66 17.33zM17.174 192.6c62.44 4.64 122.56 34.98 174.88 88.080 57.82-58.1 123.64-88.5 192.020-88.5l1.126-0.18c68.26 0.219 133.94 30.8 190.88 88.64 57.82-58.060 123.64-88.46 192.020-88.46l1.1-0.18c68.26 0.219 133.94 30.8 190.88 88.64 52.56-52.78 112.62-83.1 174.7-87.92 10.312-1.281 16.5 5.968 17.188 14.75 0.688 8.844-5.876 16.586-14.688 17.25-58.56 4.578-115.76 35.72-165.44 90.080-3.040 3.4-7.24 5.2-11.84 5.2s-8.812-1.914-11.876-5.266c-53.32-59.060-115.26-90.4-179-90.62h-0.688c-63.88 0-126.38 31.36-180.62 90.68-3.016 3.406-7.416 5.206-13.616 5.206-4.5 0-8.812-1.914-11.876-5.266-53.32-59.060-115.26-90.4-179-90.62l-0.904-0.057c-63.88 0-126.16 31.42-180.42 90.74-1.2 3.403-5.5 5.203-11.8 5.203s-7.020-0.2-10.080-5.2c-49.32-54.58-106.5-85.76-165.32-90.080-8.812-0.664-15.438-8.376-14.75-17.218 0.687-8.902 6.686-15.102 17.124-14.902zM347.2 692.6l212.6 212.6v-441.2c0-8.812 7.156-16 16-16s16 7.188 16 16v441.38l212.6-212.6c6.25-6.25 16.376-6.25 22.62 0 6.25 6.25 6.25 16.376 0 22.62l-240 240c-6.25 6.25-16.376 6.25-22.62 0l-240-240c-2.8-3.2-6.2-7.2-6.2-11.4s1.563-8.188 4.688-11.312c8.112-6.288 18.112-6.288 24.312-0.088z" />
<glyph unicode="&#xe93a;" glyph-name="water-arrow-down" horiz-adv-x="1152" d="M564.6 452.6c6.25-6.25 16.376-6.25 22.62 0l240 240c3.18 3.2 2.98 7.2 2.98 11.4s-1.563 8.188-4.688 11.312c-6.25 6.25-16.376 6.25-22.62 0l-212.6-212.6v441.288c0 8.812-7.146 16-15.99 16s-16.102-7.188-16.102-16v-441.4l-212.6 212.6c-6.25 6.25-16.376 6.25-22.62 0-6.25-6.25-6.25-16.376 0-22.62l241.62-239.98zM1137.2-31.2c-58.56 4.578-115.76 35.72-165.44 90.080-2.96 3.32-7.16 5.12-11.76 5.12s-8.812-1.914-11.876-5.266c-53.32-59.060-115.26-90.4-179-90.62h-0.688c-63.88 0-126.38 31.36-180.62 90.68-3.016 3.406-7.416 5.206-13.616 5.206-4.5 0-8.812-1.914-11.876-5.266-53.32-59.060-115.26-90.4-179-90.62h1.076c-63.88 0-126.38 31.36-180.62 90.68-2.98 3.406-7.28 5.206-13.58 5.206s-7.020-0.2-10.080-5.2c-49.32-54.58-106.5-85.76-165.32-90.080-8.812-0.664-15.438-8.376-14.75-17.218 0.688-8.82 6.688-15.094 17.126-14.844 62.44 4.64 122.56 34.98 174.88 88.080 57.82-58.1 123.66-88.68 192.040-88.68l1.104-0.058c68.26 0.219 133.94 30.8 190.88 88.64 57.72-58.040 123.72-88.64 192.12-88.64h1.073c68.26 0.219 133.94 30.8 190.88 88.64 52.56-52.78 112.62-83.1 174.7-87.92 10.312-1.281 16.5 5.968 17.188 14.75 0.559 8.93-6.041 18.33-14.841 17.33zM17.174 192.6c62.44 4.64 122.56 34.98 174.88 88.080 57.82-58.1 123.66-88.5 192.040-88.5l1.106-0.18c68.26 0.219 133.94 30.8 190.88 88.64 57.82-58.060 123.66-88.46 192.040-88.46l1.080-0.18c68.26 0.219 133.94 30.8 190.88 88.64 52.56-52.78 112.62-83.1 174.7-87.92 10.312-1.281 16.5 5.968 17.188 14.75 0.688 8.844-5.876 16.586-14.688 17.25-58.56 4.578-115.76 35.72-165.44 90.080-3.040 3.4-7.24 5.2-11.84 5.2s-8.812-1.914-11.876-5.266c-53.32-59.060-115.26-90.4-179-90.62h-0.688c-63.88 0-126.38 31.36-180.62 90.68-3.016 3.406-7.416 5.206-13.616 5.206-4.5 0-8.812-1.914-11.876-5.266-53.32-59.060-115.26-90.4-179-90.62l-0.904-0.057c-63.88 0-126.16 31.42-180.42 90.74-1.2 3.403-5.5 5.203-11.8 5.203s-7.020-0.2-10.080-5.2c-49.32-54.58-106.5-85.76-165.32-90.080-8.812-0.664-15.438-8.376-14.75-17.218 0.687-8.902 6.686-15.102 17.124-14.902z" />
<glyph unicode="&#xe93b;" glyph-name="watch" horiz-adv-x="768" d="M400 456l121.6-91.2c7-5.4 8.4-15.4 3.2-22.4s-15.4-8.6-22.4-3.2l-128 96c-4 3-6.4 7.8-6.4 12.8v192c0 8.8 7.2 16 16 16s16-7.2 16-16v-184zM128 848c0 61.86 50.14 112 112 112h288c61.8 0 112-50.14 112-112v-112h-3.8c81.6-70.4 131.8-173.4 131.8-288 0-113.8-49.4-214.2-128-286.2v-113.8c0-61.8-50.2-112-112-112h-288c-61.86 0-112 50.2-112 112v113.8c-78.56 72-128 172.4-128 286.2 0 114.6 50.28 217.6 130 288h-2v112zM240 928c-44.18 0-80-35.82-80-80v-88c63 45.28 140.4 72 224 72s161-26.72 224-72v88c0 44.18-35.8 80-80 80h-288zM608 137.8c-63-47-140.4-73.8-224-73.8s-161 26.8-224 73.8v-89.8c0-44.2 35.82-80 80-80h288c44.2 0 80 35.8 80 80v89.8zM384 800c-194.4 0-352-157.6-352-352s157.6-352 352-352c194.4 0 352 157.6 352 352s-157.6 352-352 352z" />
<glyph unicode="&#xe93c;" glyph-name="watch-smart" horiz-adv-x="768" d="M400 456l121.6-91.2c7-5.4 8.4-15.4 3.2-22.4s-15.4-8.6-22.4-3.2l-128 96c-4 3-6.4 7.8-6.4 12.8v192c0 8.8 7.2 16 16 16s16-7.2 16-16v-184zM128 828.8v51.2c0 44.18 35.82 80 80 80h352c44.2 0 80-35.82 80-80v-51.2c73-14.82 128-79.4 128-156.8v-448c0-77.4-55-140.2-128-156.8v-51.2c0-44.2-35.8-80-80-80h-352c-44.18 0-80 35.8-80 80v51.2c-73.040 16.6-128 79.4-128 156.8v448c0 77.4 54.96 141.98 128 156.8zM160 832h448v48c0 26.5-21.4 48-48 48h-352c-26.5 0-48-21.5-48-48v-48zM208-32h352c26.6 0 48 21.4 48 48v48h-448v-48c0-26.6 21.5-48 48-48zM736 224v448c0 70.6-57.4 128-128 128h-448c-70.7 0-128-57.4-128-128v-448c0-70.6 57.24-126.2 127.88-128h448.12c70.6 0 128 57.4 128 128z" />
<glyph unicode="&#xe93d;" glyph-name="watch-fitness" horiz-adv-x="768" d="M577.4 436.2l-160-154.2c-18.6-18-48.2-18-66.8 0l-160 154.2c-46.8 45.2-46.8 120.2 0 165.2 44.4 42.8 114.8 42.8 159.2 0l34.2-32.8 34.2 32.8c44.4 42.8 114.8 42.8 159.2 0 46.8-45 46.8-120 0-165.2zM384 525.8l-56.4 52.6c-32 31-82.8 31-114.8 0-33.74-32.6-33.74-86.6 0-119l160-154.4c6.2-6 16.2-6 22.4 0l160 154.4c33.8 32.4 33.8 86.4 0 119-32 31-82.8 31-114.8 0l-56.4-52.6zM128 828.8v51.2c0 44.18 35.82 80 80 80h352c44.2 0 80-35.82 80-80v-51.2c73-14.82 128-79.4 128-156.8v-448c0-77.4-55-140.2-128-156.8v-51.2c0-44.2-35.8-80-80-80h-352c-44.18 0-80 35.8-80 80v51.2c-73.040 16.6-128 79.4-128 156.8v448c0 77.4 54.96 141.98 128 156.8zM160 832h448v48c0 26.5-21.4 48-48 48h-352c-26.5 0-48-21.5-48-48v-48zM208-32h352c26.6 0 48 21.4 48 48v48h-448v-48c0-26.6 21.5-48 48-48zM736 224v448c0 70.6-57.4 128-128 128h-448c-70.7 0-128-57.4-128-128v-448c0-70.6 57.24-126.2 127.88-128h448.12c70.6 0 128 57.4 128 128z" />
<glyph unicode="&#xe93e;" glyph-name="watch-calculator" horiz-adv-x="768" d="M128 672c0 17.6 14.32 32 32 32h448c17.6 0 32-14.4 32-32v-128c0-17.6-14.4-32-32-32h-448c-17.68 0-32 14.4-32 32v128zM160 544h448v128h-448v-128zM144 400c0 35.4 28.66 64 64 64 35.4 0 64-28.6 64-64s-28.6-64-64-64c-35.34 0-64 28.6-64 64zM208 432c-17.68 0-32-14.4-32-32s14.32-32 32-32c17.6 0 32 14.4 32 32s-14.4 32-32 32zM448 400c0-35.4-28.6-64-64-64s-64 28.6-64 64c0 35.4 28.6 64 64 64s64-28.6 64-64zM384 368c17.6 0 32 14.4 32 32s-14.4 32-32 32c-17.6 0-32-14.4-32-32s14.4-32 32-32zM496 400c0 35.4 28.6 64 64 64s64-28.6 64-64c0-35.4-28.6-64-64-64s-64 28.6-64 64zM560 432c-17.6 0-32-14.4-32-32s14.4-32 32-32c17.6 0 32 14.4 32 32s-14.4 32-32 32zM272 240c0-35.4-28.6-64-64-64-35.34 0-64 28.6-64 64s28.66 64 64 64c35.4 0 64-28.6 64-64zM208 208c17.6 0 32 14.4 32 32s-14.4 32-32 32c-17.68 0-32-14.4-32-32s14.32-32 32-32zM320 240c0 35.4 28.6 64 64 64s64-28.6 64-64c0-35.4-28.6-64-64-64s-64 28.6-64 64zM384 272c-17.6 0-32-14.4-32-32s14.4-32 32-32c17.6 0 32 14.4 32 32s-14.4 32-32 32zM624 240c0-35.4-28.6-64-64-64s-64 28.6-64 64c0 35.4 28.6 64 64 64s64-28.6 64-64zM560 208c17.6 0 32 14.4 32 32s-14.4 32-32 32c-17.6 0-32-14.4-32-32s14.4-32 32-32zM128 828.8v51.2c0 44.18 35.82 80 80 80h352c44.2 0 80-35.82 80-80v-51.2c73-14.82 128-79.4 128-156.8v-448c0-77.4-55-140.2-128-156.8v-51.2c0-44.2-35.8-80-80-80h-352c-44.18 0-80 35.8-80 80v51.2c-73.040 16.6-128 79.4-128 156.8v448c0 77.4 54.96 141.98 128 156.8zM160 832h448v48c0 26.5-21.4 48-48 48h-352c-26.5 0-48-21.5-48-48v-48zM208-32h352c26.6 0 48 21.4 48 48v48h-448v-48c0-26.6 21.5-48 48-48zM608 96c70.6 0 128 57.4 128 128v448c0 70.6-57.4 128-128 128h-448c-70.7 0-128-57.4-128-128v-448c0-70.6 57.24-126.2 127.88-128h448.12z" />
<glyph unicode="&#xe93f;" glyph-name="watch-apple" horiz-adv-x="768" d="M256 448c0-35.4-28.6-64-64-64-35.34 0-64 28.6-64 64s28.66 64 64 64c35.4 0 64-28.6 64-64zM192 480c-17.68 0-32-14.4-32-32s14.32-32 32-32c17.6 0 32 14.4 32 32s-14.4 32-32 32zM224 256c0 35.4 28.6 64 64 64s64-28.6 64-64c0-35.4-28.6-64-64-64s-64 28.6-64 64zM288 224c17.6 0 32 14.4 32 32s-14.4 32-32 32c-17.6 0-32-14.4-32-32s14.4-32 32-32zM352 640c0-35.4-28.6-64-64-64s-64 28.6-64 64c0 35.4 28.6 64 64 64s64-28.6 64-64zM288 672c-17.6 0-32-14.4-32-32s14.4-32 32-32c17.6 0 32 14.4 32 32s-14.4 32-32 32zM416 256c0 35.4 28.6 64 64 64s64-28.6 64-64c0-35.4-28.6-64-64-64s-64 28.6-64 64zM480 224c17.6 0 32 14.4 32 32s-14.4 32-32 32c-17.6 0-32-14.4-32-32s14.4-32 32-32zM544 640c0-35.4-28.6-64-64-64s-64 28.6-64 64c0 35.4 28.6 64 64 64s64-28.6 64-64zM480 672c-17.6 0-32-14.4-32-32s14.4-32 32-32c17.6 0 32 14.4 32 32s-14.4 32-32 32zM304 448c0 44.2 35.8 80 80 80s80-35.8 80-80c0-44.2-35.8-80-80-80s-80 35.8-80 80zM384 400c26.6 0 48 21.4 48 48s-21.4 48-48 48c-26.6 0-48-21.4-48-48s21.4-48 48-48zM640 448c0-35.4-28.6-64-64-64s-64 28.6-64 64c0 35.4 28.6 64 64 64s64-28.6 64-64zM576 480c-17.6 0-32-14.4-32-32s14.4-32 32-32c17.6 0 32 14.4 32 32s-14.4 32-32 32zM128 828.8v51.2c0 44.18 35.82 80 80 80h352c44.2 0 80-35.82 80-80v-51.2c73-14.82 128-79.4 128-156.8v-448c0-77.4-55-140.2-128-156.8v-51.2c0-44.2-35.8-80-80-80h-352c-44.18 0-80 35.8-80 80v51.2c-73.040 16.6-128 79.4-128 156.8v448c0 77.4 54.96 141.98 128 156.8zM160 832h448v48c0 26.5-21.4 48-48 48h-352c-26.5 0-48-21.5-48-48v-48zM160 64v-48c0-26.6 21.5-48 48-48h352c26.6 0 48 21.4 48 48v48h-448zM736 672c0 70.6-57.4 128-128 128h-448c-70.7 0-128-57.4-128-128v-448c0-70.6 57.24-126.2 127.88-128h448.12c70.6 0 128 57.4 128 128v448z" />
<glyph unicode="&#xe940;" glyph-name="washing-machine" horiz-adv-x="896" d="M320 736c17.672 0 32 14.328 32 32 0 17.676-14.328 32-32 32s-32-14.32-32-32c0-17.6 14.4-32 32-32zM224 768c0 17.676-14.328 32-32 32s-32-14.32-32-32c0-17.672 14.328-32 32-32s32 14.4 32 32zM768 960h-640.040c-70.7 0-127.96-57.3-127.96-128v-768c0-70.7 57.3-128 128-128h640c70.7 0 128 57.3 128 128v768c0 70.7-57.2 128-128 128zM864 64c0-52.94-43.060-96-96-96h-640c-52.94 0-96 43.060-96 96v768c0 52.94 43.060 96 96 96h640c52.94 0 96-43.060 96-96v-768zM448 624c-150.22 0-272-121.78-272-272s121.78-272 272-272 272 121.78 272 272-121.8 272-272 272zM448 112c-120.72 0-218.2 89.9-236.6 206 48.14-14.438 99.7-2.062 138.3 34.6 54.32-52 142.22-52 196.6 0 28.16-26.76 63.32-40.76 98.96-40.76 13.176 0 26.32 2.542 39.32 6.442-16.58-114.482-115.78-206.282-236.58-206.282zM558.4 386.4c-3 3.6-7.4 5.6-12.2 5.6-3.438-0.25-9.25-2.062-12.312-5.75-22.288-26.85-53.488-40.45-85.888-40.45-32.28 0-63.6 15.376-85.94 42.18-3.060 1.82-7.46 4.020-12.26 4.020 0 0 0.031 0 0 0-4.688 0-9.188-2.062-12.218-5.624-33.982-40.176-84.782-51.576-129.382-32.176 1.2 131.4 108.2 237.8 239.8 237.8 131.58 0 238.6-106.5 239.8-237.8-44.6-19.4-95.4-7.8-129.4 32.2z" />
<glyph unicode="&#xe941;" glyph-name="warehouse" horiz-adv-x="1280" d="M658.2 919.24c-11.6 4.78-24.8 4.78-36.4 0l-540.16-221.64c-30.040-12.2-49.64-39.8-49.64-74v-669.8c0-10.6-7.16-16-16-16-8.836 0-16 5.4-16 16v669.8c0 45.4 27.46 86.4 69.48 103.6l540.12 221.642c19.4 7.982 41.4 7.982 60.8 0l540.2-221.642c42-17.2 69.4-58.2 69.4-103.6v-669.8c0-10.6-7.2-16-16-16s-16 5.4-16 16v669.8c0 34.2-19.6 61.8-49.6 74l-540.2 221.64zM1072-62.2l-865.8-1.8c-7.040 0-16 7.2-16 17.8v576c0 24.8 23.2 48 48 48h801.8c26.6 0 48-23.2 48-48v-576c0-10.6-7.2-16-16-16v0zM238.2 545.8c-7 0-16-9-16-16v-145.8h833.8v145.8c0 7-7.2 16-16 16h-801.8zM222.2 352v-192h833.8v192h-833.8zM1056-32v160h-833.8v-160h833.8z" />
<glyph unicode="&#xe942;" glyph-name="warehouse-full" horiz-adv-x="1280" d="M658.2 919.24c-11.6 4.78-24.8 4.78-36.4 0l-540.16-221.64c-30.040-12.2-49.64-39.8-49.64-74v-669.8c0-10.6-7.16-16-16-16-8.836 0-16 5.4-16 16v669.8c0 45.4 27.46 86.4 69.48 103.6l540.12 221.642c19.4 7.982 41.4 7.982 60.8 0l540.2-221.642c42-17.2 69.4-58.2 69.4-103.6v-669.8c0-10.6-7.2-16-16-16s-16 5.4-16 16v669.8c0 34.2-19.6 61.8-49.6 74l-540.2 221.64zM238.2 545.8c-7 0-16-9-16-16v-576c0-10.6-5.4-16-16-16-7.040 0-16 5.4-16 16v576c0 24.8 23.2 48 48 48h801.8c26.6 0 48-23.2 48-48v-576c0-10.6-7.2-16-16-16s-16 5.4-16 16v576c0 7-7.2 16-16 16h-801.8zM896 192c35.4 0 64-28.6 64-64v-128c0-35.4-28.6-64-64-64h-513.8c-33.6 0-64 28.6-64 64v320c0 35.4 30.4 64 64 64h224c37.2 0 65.8-28.6 65.8-64v-128h224zM606.2 352h-224c-15.8 0-32-14.4-32-32v-128h288v128c0 17.6-12.6 32-32 32zM638.2 160h-288v-160c0-17.6 16.2-32 32-32h256v192zM672-32h224c17.6 0 32 14.4 32 32v128c0 17.6-14.4 32-32 32h-224v-192z" />
<glyph unicode="&#xe943;" glyph-name="wand" d="M1005.6 941.96c-12.2 12.186-28.2 18.040-44.2 18.040-14.996 0-30.060-5.124-42-15.922l-546.2-494.278h-85.2c-17.672 0-30.2-14.33-30.2-32v-73.76l-236.76-213.84c-27.16-24.5-28.16-66.82-2.29-92.68l82.8-82.82c12.57-12.5 28.97-18.7 45.29-18.7 17.438 0 34.8 7.090 47.46 21.040l558.4 619h47.24c17.75 0 30.2 14.252 30.2 32v57.76l175.84 191.64c24.22 23 23.22 60.92-0.38 84.52zM984.2 877l-184.26-200.6 0.008-68.46h-61.48l-567.8-629.4c-6.208-6.74-14.648-10.54-23.828-10.54-8.536 0-16.574 3.336-22.64 9.39l-82.86 82.88c-6.242 6.246-9.554 14.542-9.328 23.38s3.96 16.946 10.516 22.86l245.6 221.6-0.004 87.96h97.6l555.2 504.2c5.676 4.93 12.876 7.73 20.476 7.73 8.18 0 15.864-3.184 21.64-8.96 11.56-11.56 11.96-30.080 1.16-42.040z" />
<glyph unicode="&#xe944;" glyph-name="wand-sparkles" d="M798.2 577.8c17.75 0 30.2 14.254 30.2 32v56l175.84 191.64c22.42 24.74 21.44 62.64-2.164 86.24-8.676 10.466-24.676 16.32-40.676 16.32-14.996 0-30.060-5.124-42-15.922l-546.2-496h-85.2c-17.672 0-30.2-14.328-30.2-30.2v-73.76l-235-212c-27.16-24.5-28.16-66.82-2.29-92.68l82.8-82.82c10.81-14.418 27.21-20.618 43.53-20.618 17.438 0 34.82 7.090 47.48 21.040l558.4 619h45.48zM729 597.4l-558.4-618.8c-6.14-6.8-14.58-10.6-23.76-10.6-8.536 0-16.574 3.336-22.64 9.39l-82.86 82.88c-6.242 6.246-9.554 14.542-9.328 23.38s3.96 16.946 10.516 22.86l245.6 221.6-0.004 87.96h97.6l555.2 504.2c5.676 4.93 12.876 7.73 20.476 7.73 8.18 0 15.864-3.184 21.64-8.96 11.554-11.554 12.008-30.080 1.172-42.040l-184.26-200.6 0.008-68.46h-61.48l-9.48-10.54zM16 656h128v-128c0-8.812 7.15-15.994 15.994-15.994s16.006 7.194 16.006 15.994v128h128c8.844 0 15.952 7.16 15.952 15.972s-7.152 16.028-15.952 16.028h-128v128c0 8.812-7.156 15.994-15.998 15.994s-16.002-7.174-16.002-15.994v-128h-128c-8.844 0-16-7.2-16-16s7.156-16 16-16zM368 848h64v-64c0-8.82 7.2-16 14.2-16s17.8 7.18 17.8 16v64h64c8.844 0 15.976 7.188 15.976 16s-7.176 16-15.976 16h-64v64c0 8.812-7.2 16-17.8 16s-14.2-7.188-14.2-16v-64h-64c-8.844 0-15.996-7.188-15.996-16s7.196-16 15.996-16zM1008 240h-128v128c0 8.812-7.154 16-15.998 16s-16.002-7.2-16.002-16v-128h-128c-8.844 0-15.976-7.178-15.976-15.99s7.176-16.010 15.976-16.010h128v-128c0-8.812 7.158-16 16.002-16s15.998 7.2 15.998 16v128h128c8.844 0 15.978 7.178 15.978 15.99s-7.178 16.010-15.978 16.010z" />
<glyph unicode="&#xe945;" glyph-name="wand-magic" d="M24.56 136.6l798.84 798.84c31.2 31.234 82 31.234 113.2 0l62.8-62.88c31.2-31.24 31.2-81.88 0-113.16l-798.8-798.8c-31.28-31.2-81.92-31.2-113.16 0l-62.88 62.8c-31.234 31.2-31.234 82 0 113.2v0zM587.4 651.4l128-128c0.4-0.6 0.8-1 1.2-1.6l260.2 260.26c18.8 18.74 18.8 49.14 0 67.88l-64.6 62.86c-17 18.74-47.4 18.74-66.2 0l-260.2-260.2c0.6-0.4 1-0.8 1.6-1.2v0zM563.4 630.2l-516.2-516.2c-18.74-18.8-18.74-49.2 0-66.2l62.86-64.6c18.74-18.8 49.14-18.8 67.88 0l516.26 516.2c-0.6 0.4-1 0.8-1.6 1.2l-128 128c-0.4 0.6-0.8 1-1.2 1.6v0z" />
<glyph unicode="&#xe946;" glyph-name="wand-magic-sparkles" horiz-adv-x="1152" d="M1000.6 935.44l62.8-62.88c31.2-31.24 31.2-81.88 0-113.16l-798.8-798.8c-31.2-31.2-81.92-31.2-113.16 0l-62.88 62.8c-31.24 31.2-31.24 82 0 113.2l798.84 798.84c31.2 31.234 82 31.234 113.2 0v0zM910 912.8l-260.2-260.2c0.6-0.4 1-0.8 1.6-1.2l128-128c0.4-0.6 0.8-1 1.2-1.6l260.2 260.26c18.8 18.74 18.8 49.14 0 67.88l-64.6 62.86c-17 18.74-47.4 18.74-66.2 0v0zM111.2 47.8l62.86-64.6c18.74-18.8 49.14-18.8 66.14 0l518 516.2c-0.6 0.4-1 0.8-1.6 1.2l-128 128c-0.4 0.6-0.8 1-1.2 1.6l-516.2-516.2c-18.76-18.8-18.76-49.2 0-66.2v0zM208 720h112c8.8 0 16-7.2 16-16s-7.2-16-16-16h-112v-112c0-8.8-7.2-16-16-16-8.84 0-16 7.2-16 16v112h-112c-8.84 0-16 7.2-16 16s7.16 16 16 16h112v112c0 8.84 7.16 16 16 16 8.8 0 16-7.16 16-16v-112zM960 336c8.8 0 16-7.2 16-16v-112h112c8.8 0 16-7.2 16-16s-7.2-16-16-16h-112v-112c0-8.8-7.2-16-16-16s-16 7.2-16 16v112h-112c-8.8 0-16 7.2-16 16s7.2 16 16 16h112v112c0 8.8 7.2 16 16 16zM464 848h48c8.8 0 16-7.16 16-16s-7.2-16-16-16h-48v-48c0-8.8-7.2-16-16-16s-16 7.2-16 16v48h-48c-8.8 0-16 7.16-16 16s7.2 16 16 16h48v49.8c0 7.040 7.2 16 16 16s16-8.96 16-16v-49.8z" />
<glyph unicode="&#xe947;" glyph-name="wallet" d="M944 896c8.8 0 16-7.16 16-16s-7.2-16-16-16h-800c-61.86 0-112-50.14-112-112v-608c0-61.8 50.14-112 112-112h736c61.8 0 112 50.2 112 112v448c0 61.8-50.2 112-112 112h-736c-8.84 0-16 7.2-16 16s7.16 16 16 16h736c79.6 0 144-64.4 144-144v-448c0-79.6-64.4-144-144-144h-736c-79.52 0-144 64.4-144 144v608c0 79.52 64.48 144 144 144h800zM880 368c0-44.2-35.8-80-80-80s-80 35.8-80 80c0 44.2 35.8 80 80 80s80-35.8 80-80zM800 416c-26.6 0-48-21.4-48-48s21.4-48 48-48c26.6 0 48 21.4 48 48s-21.4 48-48 48z" />
<glyph unicode="&#xe948;" glyph-name="walkie-talkie" horiz-adv-x="768" d="M656 768v32c0 26.44-21.56 48-48 48h-64c-26.44 0-48-21.56-48-48v-32h-32v32c0 26.44-21.56 48-48 48h-64c-26.44 0-48-21.56-48-48v-32h-112v176c0 8.812-7.18 16-16 16s-16-7.188-16-16v-176h-48c-44.12 0-80-35.8-80-80v-306.6c0-43.94 19.688-84.94 54.060-112.44l25.94-20.56v-232.4c0-44.2 35.88-80 80-80h384c44.12 0 80 35.88 80 80v232.4l25.94 20.76c34.46 27.44 54.060 68.44 54.060 112.24v306.6c0 44.2-35.8 80-80 80zM528 800c0 8.812 7.188 16 16 16h64c8.812 0 16-7.188 16-16v-32h-96v32zM336 800c0 8.812 7.188 16 16 16h64c8.812 0 16-7.188 16-16v-32h-96v32zM704 381.4c0-34.18-15.312-66.060-42.060-87.44l-31.94-25.56c-3.8-3-6-7.6-6-12.4v-240c0-26.44-21.56-48-48-48h-384c-26.44 0-48 21.56-48 48v240c0 4.876-2.188 9.438-6 12.5l-31.94 25.56c-26.74 21.34-42.060 53.34-42.060 87.34v306.6c0 26.4 21.56 48 48 48h544c26.4 0 48-21.6 48-48v-306.6zM560 640h-352c-8.82 0-16-7.2-16-16s7.18-16 16-16h352c8.8 0 16 7.2 16 16s-7.2 16-16 16zM560 512h-352c-8.82 0-16-7.2-16-16s7.18-16 16-16h352c8.8 0 16 7.2 16 16s-7.2 16-16 16zM560 384h-352c-8.82 0-16-7.2-16-16s7.18-16 16-16h352c8.8 0 16 7.2 16 16s-7.2 16-16 16z" />
<glyph unicode="&#xe949;" glyph-name="walker" horiz-adv-x="896" d="M185.3 544l-153.8-596c-2.22-8.6-10.94-13.8-19.498-11.4-8.556 2.2-13.702 10.8-11.494 19.4l231.292 895.98c16.4 63.58 73.6 108.020 139.4 108.020h284.8c79.6 0 144-64.48 144-144v-688c53 0 96-43 96-96s-43-96-96-96c-53 0-96 43-96 96 0 41.8 26.8 77.4 64 90.6v421.4h-582.7zM371.2 928c-51.2 0-95.8-34.56-108.4-84.020l-69.24-267.98h574.44v240c0 61.86-50.2 112-112 112h-284.8zM800-32c35.4 0 64 28.6 64 64s-28.6 64-64 64c-35.4 0-64-28.6-64-64s28.6-64 64-64z" />
<glyph unicode="&#xe94a;" glyph-name="wagon-covered" horiz-adv-x="1280" d="M1127.6 480h8.4c8.8 0 16-7.2 16-16v-80c0-8.8-7.2-16-16-16s-16 7.2-16 16v64h-960v-64c0-8.8-7.16-16-16-16s-16 7.2-16 16v80c0 8.8 7.16 16 16 16h8.36l-136.236 340.6c-26.182 65.46 24.756 135.874 95.116 131.476l265.76-16.616c46.2-2.88 86.2-27.36 110.4-63.24 16.2 41.98 57 71.782 104.6 71.782h96c47.6 0 88.4-29.802 104.6-71.782 24.2 35.88 64.2 60.36 110.4 63.24l265.8 16.618c70.4 4.396 121.2-66.018 95-131.458l-136.2-340.62zM1234.2 832.5c17.4 43.64-16.6 90.58-63.4 87.64l-265.8-16.6c-60.8-3.7-105-52.64-105-111.8v-311.74h293.2l141 352.5zM480 480v311.74c0 59.16-46 108.1-105 111.8l-265.76 16.6c-46.9 2.94-80.86-44-63.4-87.64l141-352.5h293.16zM512 481.8h256v352c0 42.38-35.8 80-80 80h-96c-44.2 0-80-37.62-80-80v-352zM928 320c8.8 0 16-7.2 16-16v-128h128c8.8 0 16-7.2 16-16s-7.2-16-16-16h-128v-128c0-8.8-7.2-16-16-16s-16 7.2-16 16v128h-128c-8.8 0-16 7.2-16 16s7.2 16 16 16h128v128c0 8.8 7.2 16 16 16v0zM368 176h128c8.8 0 16-7.2 16-16s-7.2-16-16-16h-128v-128c0-8.8-7.2-16-16-16s-16 7.2-16 16v128h-128c-8.84 0-16 7.2-16 16s7.16 16 16 16h128v128c0 8.8 7.2 16 16 16s16-7.2 16-16v-128zM352 384c123.8 0 224-100.2 224-224h128c0 123.8 100.2 224 224 224s224-100.2 224-224c0-123.8-100.2-224-224-224-112.8 0-206.2 83.4-221.8 192h-132.4c-15.6-108.6-109-192-221.8-192-123.8 0-224 100.2-224 224s100.2 224 224 224v0zM736 159.2c0.4-105.6 86.2-191.2 192-191.2 106 0 192 86 192 192 0 107.8-86 192-192 192-107.8 0-192-84.2-192-192v-0.8zM352 352c-107.8 0-192-84.2-192-192 0-106 84.2-192 192-192 106 0 192 86 192 192 0 107.8-86 192-192 192z" />
<glyph unicode="&#xe94b;" glyph-name="waffle" d="M1023.4 509.2c-27.88 237.4-213.4 422.4-451 450.2-3.714 0.441-7.438 0.656-11.146 0.656-17.258 0-34.26-4.678-49.18-13.35-15.074 8.604-32.074 13.294-49.274 13.294-3.6 0-7.4-0.219-11.2-0.668-239.4-27.752-423.080-212.932-450.963-450.132-2.442-21.1 2.192-42.2 12.718-60.24-10.527-18.16-15.159-39.16-12.718-60.36 0 0 0 0.031 0 0 28.76-245.2 228.6-435.4 475.4-452.4 1.763 1.6 3.563-0.2 5.363-0.2 8.8 0 20.8 2.6 30.6 6.8 9.8-4.2 20-6.8 30.6-6.8 1.75 0 3.5 0.063 5.25 0.188 246.8 17 446.6 207.2 475.4 452.4 2.442 21.080-2.188 42.16-12.714 60.22 10.664 18.192 15.264 40.992 12.864 60.392zM983 465l-0.6-1h-230.4v192h194.2c22.040-46.52 37.3-97 43.58-150.56 3.42-14.040 0.42-28.040-6.78-40.44zM496 432v-190.2h-192v190.2h192zM304 464v192h192v-192h-192zM528 432h190.2v-190.2h-190.2v190.2zM528 464v192h190.2v-192h-190.2zM930 688h-178.060v177.9c74.46-42.46 135.66-103.62 178.060-177.9zM561.2 927.98c2.458 0 4.922-0.141 7.434-0.441 53.86-6.286 104.64-21.56 151.4-43.68v-195.859h-192.034v230.92c10.2 5.9 21.6 9.060 33.2 9.060zM455.6 927.56c0.6 0.3 4.8 0.44 7.2 0.44 11.472 0 22.9-3.122 33.040-9.020l0.16-230.98h-192v195.84c46.8 22.14 97.6 37.42 151.6 43.72zM272 865.88v-177.88h-178.040c42.46 74.26 103.68 135.42 178.040 177.88zM76.020 656h195.98v-192h-230.42l-0.58 1c-7.24 12.4-10.2 26.4-8.58 40.4 6.3 53.6 21.56 104 43.6 150.6zM40.72 432h231.2v-190.2h-194.94c-22.66 47-38.2 98.16-44.56 152.32-1.56 11.68 1.44 25.88 8.3 37.88zM94.020 209.8h177.98v-177.22c-73.84 40.42-135.28 101.62-177.98 177.22zM479.2-31.8c-0.305 0-0.617 0.004-0.934 0.008-62.060 4.274-120.76 20.56-174.26 46.060v195.532h191.994v-236.4c-5.2-3.8-11.8-5.2-16.8-5.2zM542.6-32c-4.492 0-9.55 1.563-14.688 3.426v238.374h190.2v-193.28c-52.312-27.72-112.112-44.12-175.512-48.52zM750.2 31.4v178.4h177.9c-40.9-75.2-103.9-136.2-177.9-178.4zM947 241.8h-194.98v190.2h231.4c6.84-12.078 9.856-26.1 8.29-39.62-6.51-54.18-22.11-105.38-44.71-150.58z" />
<glyph unicode="&#xe94c;" glyph-name="w" horiz-adv-x="1152" d="M831.8 0c-0.2 0-1.6 0 0 0-6.938 0.188-13.172 4.812-15.14 11.438l-240.66 812.242-240.6-812.28c-2-6.6-8-11.2-15-11.4-6.968 0.563-13.218 4.124-15.5 10.688l-303.986 863.992c-2.938 8.312 1.437 17.5 9.782 20.38 8.342 3 17.504-1.44 20.404-9.74l287.6-817.4 241.9 816.64c4.062 13.5 26.62 13.5 30.68 0l240.2-816.6 287.6 817.4c2.938 8.312 12.124 12.75 20.4 9.75 8.344-2.876 12.718-12.062 9.782-20.38l-302.2-862.2c-2.262-8.33-8.462-12.53-15.262-12.53z" />
<glyph unicode="&#xe94d;" glyph-name="vr-cardboard" horiz-adv-x="1280" d="M1152 832h-1024c-70.4 0-128-57.6-128-128v-512c0-70.4 57.6-128 128-128h256.6c50.36 0 96.060 29.54 116.74 75.46l55.52 123.3c15.75 35 48 57.26 83.26 57.26s67.5-22.26 83.26-57.26l55.5-123.26c20.7-45.96 66.4-75.5 116.8-75.5h256.32c70.4 0 128 57.6 128 128v512c0 70.4-57.6 128-128 128zM1248 192c0-52.94-43.060-96-96-96h-256.4c-37.74 0-72.12 22.24-87.62 56.64l-55.5 123.24c-20.88 46.32-65.080 76.12-112.48 76.12s-91.62-29.88-112.42-76.12l-55.52-123.3c-15.46-34.38-49.86-56.58-87.46-56.58h-256.6c-52.94 0-96 43.060-96 96v512c0 52.94 43.060 96 96 96h1024c52.94 0 96-43.060 96-96v-512zM320 608c-70.76 0-128-57.24-128-126.2s57.24-128 128-128 128 57.26 128 128-57.2 126.2-128 126.2zM320 384c-53 0-96 43-96 96s43 96 96 96 96-43.060 96-96-43-96-96-96zM960 608c-70.76 0-128-57.24-128-126.2s57.24-128 128-128 128 57.26 128 128-57.2 126.2-128 126.2zM960 384c-52.94 0-96 43.060-96 96s43 96 96 96 96-43.060 96-96-43-96-96-96z" />
<glyph unicode="&#xe94e;" glyph-name="volume" horiz-adv-x="1152" d="M666.4 890.32c-8.578 3.938-17.246 5.682-26.32 5.682-14.992 0-29.84-5.264-41.64-15.428l-206.040-238.774h-264.4c-35.34 0-64-28.66-64-64v-256c0-35.34 28.66-64 64-64h264.4l204.2-240.6c13.6-12 28.4-17.2 43.4-17.2 9.062 0 17.762 1.737 26.32 5.674 22.68 10.526 37.68 33.326 37.68 58.326v768c0 25-15 47.88-37.6 58.32zM672 65.8c0-12.446-7.312-23.84-18.618-29.060-4.182-3.74-8.782-2.94-13.382-2.94-6.954 0-13.688 2.266-19.164 6.414l-213.8 249.6h-279.036c-17.648 0-32 14.356-32 32v256c0 17.644 14.352 32 32 32h279.2l213.6 249.6c5.484 4.144 12.204 6.406 19.14 6.406 4.648 0 9.172-0.992 13.406-2.934 11.254-7.026 18.654-18.426 18.654-30.866v-766.22zM1020.2 719.2c-6.688 5.562-16.876 4.626-22.5-2.25-5.624-6.812-4.624-16.876 2.25-22.5 76.85-61.65 120.050-151.45 120.050-244.65s-43.12-184.88-118.32-246.6c-6.876-5.626-7.876-15.688-2.25-22.5 3.188-3.876 7.75-5.876 12.376-5.876 3.562 0 7.188 1.188 10.124 3.626 82.67 66.15 130.070 164.95 130.070 269.55s-47.4 203.6-131.8 271.2zM878.4 569c-5.624-6.812-4.624-16.938 2.25-22.5 30.15-24.5 47.35-58.7 47.35-96.7s-17.25-73.94-47.38-98.56c-6.876-5.562-7.876-15.688-2.25-22.5 3.124-3.876 7.75-5.876 12.376-5.876 3.562 0 7.188 1.188 10.124 3.626 37.53 28.91 59.13 73.91 59.13 121.51s-21.56 92.64-59.12 123.32c-6.88 5.48-17.080 4.68-22.48-2.32z" />
<glyph unicode="&#xe94f;" glyph-name="volume-xmark" horiz-adv-x="1152" d="M602.4 890.3c-8.578 3.938-17.278 5.696-26.34 5.696-14.992 0-29.84-5.264-41.64-15.428l-206.020-238.768h-264.4c-35.34 0-64-28.66-64-64v-256c0-35.34 28.66-64 64-64h264.4l204.2-240.6c11.812-10.188 26.64-15.438 41.64-15.438 9.058 0 17.788 1.75 26.34 5.688 22.68 10.438 37.64 33.32 37.64 58.32v766.23c-0.020 25-13.22 47.86-35.82 58.3zM606.2 64c0-12.446-7.312-23.84-18.618-29.060-2.382-1.94-6.982-2.94-13.382-2.94-6.954 0-13.688 2.266-19.164 6.414l-211.836 251.386h-279.2c-17.648 0-32 14.356-32 32v256c0 17.644 14.352 32 32 32h279.2l213.6 249.6c5.6 2.34 12.2 4.6 17.4 4.6 4.644 0 9.168-0.992 13.402-2.934 11.312-5.204 18.624-16.61 18.624-29.060v-768.006zM982.6 449.8l132.68 132.68c6.25 6.25 6.25 16.376 0 22.62s-16.376 6.25-22.62 0l-132.66-134.5-132.68 132.68c-6.25 6.25-16.376 6.25-22.62 0s-6.25-16.376 0-22.62l132.68-132.68-132.68-132.68c-6.25-6.25-6.25-16.376 0-22.62 6.254-6.254 16.372-6.254 22.62 0l132.68 132.72 132.68-132.68c6.254-6.254 16.372-6.254 22.62 0 6.25 6.25 6.25 16.376 0 22.62l-132.7 134.46z" />
<glyph unicode="&#xe950;" glyph-name="volume-slash" horiz-adv-x="1280" d="M992 449.8c0-27.44-9.262-53.66-25.62-75.48l25.080-19.926c20.74 27.406 32.54 58.806 32.54 93.606 0 47.62-21.56 92.64-59.12 123.32-6.876 5.562-17 4.624-22.5-2.25-5.624-6.812-4.624-16.938 2.25-22.5 30.17-24.57 47.37-58.77 47.37-96.77zM684.8 857.6c5.6 4.14 12.2 6.4 17.4 6.4 4.648 0 9.172-0.992 13.406-2.934 12.994-5.206 20.394-16.606 20.394-29.046v-276.42l32-25.4v301.8c0 25-14.988 47.88-37.68 58.32-8.578 3.938-17.246 5.682-26.32 5.682-14.992 0-29.84-5.264-41.64-15.428l-135.76-156.774 25.060-19.926 133.14 153.726zM1184 449.8c0-70.98-24.1-139.080-67.64-194.68l25.060-19.918c47.98 59.398 74.58 134.398 74.58 212.798 0 104.62-47.38 203.6-130.060 271.2-6.688 5.562-16.876 4.624-22.5-2.25-5.624-6.812-4.624-16.876 2.25-22.5 75.11-61.65 118.31-151.45 118.31-244.65zM736 64c0-12.446-7.312-23.84-18.618-29.060-4.182-1.94-8.782-2.94-13.382-2.94-6.954 0-13.688 2.266-19.164 6.414l-213.636 251.386h-279.2c-17.648 0-32 14.356-32 32v256c0 17.644 14.352 32 32 32h15.274l-35.194 26.2c-25.44-8.4-44.080-31.8-44.080-58.2v-256c0-35.34 28.66-64 64-64h264.4l204.2-240.6c13.6-12 28.4-17.2 43.4-17.2 9.062 0 17.762 1.737 26.32 5.674 22.68 10.526 37.68 33.326 37.68 58.326v98.3l-32 25.44v-123.74zM1272.2-35.4l-1246.22 991.94c-2.92 2.327-6.438 3.46-9.93 3.46-4.702 0-9.378-2.054-12.574-6.024-5.5-6.938-4.344-17 2.562-22.5l1246.2-992c4.762-2.276 8.162-3.476 9.962-3.476 4.688 0 9.376 2.062 12.532 6.032 7.268 6.968 6.068 16.968-2.532 22.568z" />
<glyph unicode="&#xe951;" glyph-name="volume-off" horiz-adv-x="640" d="M602.4 890.32c-8.578 3.938-17.246 5.682-26.32 5.682-14.992 0-29.84-5.264-41.64-15.428l-204.2-240.6h-266.24c-35.34 0-64-28.66-64-64v-256c0-35.34 28.66-64 64-64h264.4l204.2-240.6c13.6-10.174 28.4-15.374 43.4-15.374 9.062 0 17.762 1.737 26.32 5.674 22.68 10.526 37.68 33.326 37.68 58.326v768c0 25-15 47.88-37.6 58.32zM608 65.8c0-12.446-7.312-23.84-18.618-29.060-4.182-3.74-8.782-2.94-13.382-2.94-6.954 0-13.688 2.266-19.164 6.414l-213.8 249.6h-279.036c-17.648 0-32 14.356-32 32v256c0 17.644 14.352 32 32 32h279.2l213.6 249.6c5.484 4.144 12.204 6.406 19.14 6.406 4.648 0 9.172-0.992 13.406-2.934 11.254-7.026 18.654-18.426 18.654-30.866v-766.22z" />
<glyph unicode="&#xe952;" glyph-name="volume-high" horiz-adv-x="1280" d="M602.4 890.040c-8.578 3.938-17.246 5.804-26.32 5.804-14.992 0-29.84-5.102-41.64-15.268l-206.040-238.776h-264.4c-35.34 0-64-28.66-64-64v-256c0-35.34 28.66-64 64-64h264.4l204.2-240.6c13.6-12 28.4-16.8 43.4-16.8 9.062 0 17.762 1.733 26.32 5.67 22.68 10.33 37.68 33.13 37.68 58.13v767.56c0 25-15 47.84-37.6 58.28zM608 65.8c0-12.446-7.312-23.84-18.618-29.060-4.182-3.74-8.782-2.94-13.382-2.94-6.954 0-13.688 2.266-19.164 6.414l-213.8 249.6h-279.036c-17.648 0-32 14.356-32 32v256c0 17.644 14.352 32 32 32h279.2l213.6 249.6c5.484 4.144 12.204 6.406 19.14 6.406 4.648 0 9.172-0.992 13.406-2.934 11.254-7.026 18.654-18.426 18.654-30.866v-766.22zM1080.4 868.94c-6.75 5.562-16.876 4.626-22.5-2.25-5.624-6.812-4.624-16.876 2.25-22.5 119.45-97.79 187.85-240.39 187.85-394.39s-68.44-298.4-187.82-396.2c-6.876-5.626-7.876-15.688-2.25-22.5 3.188-3.876 7.75-5.876 12.376-5.876 3.562 0 7.188 1.188 10.124 3.626 126.77 102.15 199.57 255.55 199.57 420.95s-72.8 315.28-199.6 419.14zM956.2 719.2c-6.688 5.562-16.876 4.626-22.5-2.25-5.624-6.812-4.624-16.876 2.25-22.5 76.85-61.65 120.050-151.45 120.050-244.65s-43.12-184.88-118.32-246.6c-6.876-5.626-7.876-15.688-2.25-22.5 3.188-3.876 7.75-5.876 12.376-5.876 3.562 0 7.188 1.188 10.124 3.626 82.67 66.15 130.070 164.95 130.070 271.35s-47.4 201.8-131.8 269.4zM814.4 569c-5.624-6.812-4.624-16.938 2.25-22.5 30.15-24.5 47.35-58.7 47.35-96.7s-17.25-73.94-47.38-98.56c-6.876-5.562-7.876-15.688-2.25-22.5 3.124-3.876 7.75-5.876 12.376-5.876 3.562 0 7.188 1.188 10.124 3.626 37.53 28.91 59.13 73.91 59.13 123.31s-21.56 92.62-59.12 123.3c-6.88 3.7-17.080 2.9-22.48-4.1z" />
<glyph unicode="&#xe953;" glyph-name="volume-low" horiz-adv-x="896" d="M602.4 890.32c-8.578 3.938-17.246 5.684-26.32 5.684-14.992 0-29.84-5.264-41.64-15.428l-206.040-238.776h-264.4c-35.34 0-64-28.66-64-64v-256c0-35.34 28.66-64 64-64h264.4l204.2-240.6c13.6-12 28.4-17.2 43.4-17.2 9.062 0 17.762 1.737 26.32 5.674 22.68 10.526 37.68 33.326 37.68 58.326v768c0 25-15 47.88-37.6 58.32zM608 65.8c0-12.446-7.312-23.84-18.618-29.060-4.182-3.74-8.782-2.94-13.382-2.94-6.954 0-13.688 2.266-19.164 6.414l-213.8 249.6h-279.036c-17.648 0-32 14.356-32 32v256c0 17.644 14.352 32 32 32h279.2l213.6 249.6c5.484 4.144 12.204 6.406 19.14 6.406 4.648 0 9.172-0.992 13.406-2.934 11.254-7.026 18.654-18.426 18.654-30.866v-766.22zM814.4 569c-5.624-6.812-4.624-16.938 2.25-22.5 30.15-24.5 47.35-58.7 47.35-96.7s-17.25-73.94-47.38-98.56c-6.876-5.562-7.876-15.688-2.25-22.5 3.124-3.876 7.75-5.876 12.376-5.876 3.562 0 7.188 1.188 10.124 3.626 37.53 28.91 59.13 73.91 59.13 121.51s-21.56 92.64-59.12 123.32c-6.88 5.48-17.080 4.68-22.48-2.32z" />
<glyph unicode="&#xe954;" glyph-name="volleyball" d="M512 960c-282.8 0-512-229.2-512-512s229.2-512 512-512 512 229.2 512 512-229.2 512-512 512zM992 448c0-15.976-0.867-31.76-2.398-47.32-64.64-16.922-125.6-22.66-180.64-20.72 10.86 74.76 25.8 307.6-146.88 523.6 191.318-63.12 329.918-243.36 329.918-455.56zM322.4 251.4c75.4 108 164 163.6 189.2 178.2 31.52-18.46 152.44-82.22 319.2-82.22 47.68 0 99.56 6.546 153.64 19.624-15.454-90.28-56.080-171.86-114.56-237.6-288.080-62.004-492.080 77.796-547.48 121.996zM608 918.32c198.96-218.8 179.6-466.2 168.94-536.4-131.14 11.368-223.8 60.34-248.8 74.96 0.328 46.26-9.168 259.4-181.86 441 51.72 19.16 107.32 30.12 165.72 30.12 32.8 0 65-3.36 96-9.68zM314.4 884.96c46.82-47.42 82.18-97.26 107.98-145.78-70.3-28.020-279.4-131.56-380.2-389.4-6.62 31.62-10.18 64.62-10.18 98.22 0 194.2 116.14 361.46 282.4 436.96zM56.86 296.6c90.18 281.2 313.8 388 379.8 413.8 55.7-119.26 59.6-222.2 59.52-253-40.32-22.9-219.6-138.28-290.4-378.6-68.28 56.6-120.26 132-148.92 217.8zM233.6 57.8c17.504 64.18 41.96 120.58 71 167.040 51.96-40.88 204.2-143.6 421.4-143.6 33.34 0 68.76 3.624 105.1 9.218-84.9-75.858-196.5-122.458-319.1-122.458-103.8 0-199.8 33.4-278.4 89.8z" />
<glyph unicode="&#xe955;" glyph-name="volcano" d="M605.8 512h-187.6c-24 0-46.4-10.6-61.4-29.2l-107.8-134c-4.6-6-4.6-14.4 0.2-20.2l25.62-31.12c12-14.688 30.7-23.22 51.080-23.22 0.063-0.063-0.094 0 0 0 20.42 0.063 39.22 8.406 51.42 23.22 31.14 38.040 101.58 54.52 147.86 2.438l61.26-69.68c12.004-13.624 30.040-21.5 49.48-21.56 19.536 0 37.94 7.812 50.14 21.56l87.44 99.44c5.156 5.812 5.344 14.5 0.469 20.56l-106.74 132.88c-15.229 18.282-37.629 28.882-61.429 28.882zM662 251.4c-12.79-14.368-39.020-14.292-51.6-0.063l-61.32 69.76c-24.56 27.62-58.2 43.5-90.58 43.5-46.92 0-82.040-17.512-105.98-46.82-12.484-15.164-40.34-15.492-53.060 0l-17.26 21.023 99.58 123.94c8.82 11.060 20.42 17.26 36.42 17.26h187.5c14.312 0 27.76-6.312 36.72-17.124l98.14-122.26-78.56-89.216zM329.6 665.8c20.56 0 40.78 4.5 59.34 13.184l48.060-94.384c4.062-7.876 13.782-10.996 21.56-6.812 7.844 4.062 10.906 13.75 6.812 21.56l-55.572 107.052c-5.554 10.774-17.372 9.39-22.66 6.188-17.34-10.788-38.94-14.788-57.54-14.788-58.2 0-105.6 43.6-105.6 99.54 0 55.86 47.38 101.36 105.6 101.36 24.88 0 48.46-8.496 68.28-24.62 8.242-6.71 19.168-3.282 23.7 3.996 19.376 31.24 53.18 49.92 90.44 49.92s71.060-18.684 90.44-49.92c4.558-7.336 15.422-10.668 23.68-3.996 19.812 16.122 43.4 24.62 68.28 24.62 58.22 0 105.6-45.48 105.6-101.36 0-55.86-47.38-101.3-105.6-101.3-20.32 0-40.22 5.75-57.56 16.562-5.238 3.204-17.094 4.594-22.66-6.188l-55.6-107.014c-4.094-7.808-1.031-17.496 6.812-21.56 9.39-5.004 18.496 0.883 21.56 6.812l48.060 92.54c18.562-8.684 38.78-13.184 59.34-13.184 75.88 0 137.6 59.8 137.6 133.28 0 73.56-61.72 133.36-137.6 133.36-26.68 0-52.18-7.5-74.66-21.8-25.912 32.344-65.112 51.152-109.512 51.152s-80-18.808-106-51.12c-22.4 14.32-48 21.82-74.6 21.82-75.8 0-137.6-59.8-137.6-133.36 0-73.54 61.8-131.54 137.6-131.54zM1006.2 58.8l-195.24 243c-5.5 6.876-15.566 8-22.5 2.5-6.876-5.562-7.968-15.624-2.438-22.5l195.020-242.6c23.358-28.2 4.358-71.2-35.042-71.2h-867.86c-38.96 0-58.92 42.62-37.16 70.76l194.020 241c5.536 6.938 4.438 17-2.438 22.5-6.906 5.624-16.968 4.438-22.5-2.376l-194.24-241.4c-17.692-22.94-20.78-53.32-8.032-79.26 13.11-26.624 40.090-43.224 70.35-43.224h866.2c30.12 0 57 16.562 70.14 43.24 14.52 25.96 9.72 56.36-8.28 79.56z" />
</font>
</defs>
</svg>
